Ссылка на приватное зеркало нашего сайта всего за 1$. Внимание количество ограничено!!!

2 сезон

iTunes

1 сезон

1

2 сезон

2 сезон

iTunes

1 сезон

RePack

30

Ultimate

ВАЖНО

ИГРА 18+

pack

RePack

MK11
pack

Забери бонус

RePack

jed

!!Акция!!

Alien_Rage

RePack

fifa19

RePack

Assassins Creed: Odyssey

RePack

NEED FOR SPEED™ PAYBACK

4 сезон

9 сезон

Бесстыжие 9 сезон

Все сериалы

все сериалы на PB.wtf

RePack

FAR CRY 5
  

Нью-Йоркское такси / Taxi / New York Taxi (Тим Стори) [2004 г., боевик, комедия, криминал, BDRip 720p, Дубляж] pb.wtf

Нью-Йоркское такси через торрент pb.wtf

Размер: 4.63 GB | Добавлен: 7 лет 3 мес. назад | Торрент скачан:76 раз
Скачать  

05-08-2013 18:24 Нью-Йоркское такси Скачать торрент  

Нью-Йоркское такси / Taxi / New York Taxi
Год выпуска: 2004
Страна: США, Франция
Жанр: боевик, комедия, криминал
Продолжительность: 01:37:08
Перевод: Дубляж
Субтитры: Русские, английские

Режиссер: Тим Стори
Продюссер: Люк Бессон, Роберт Бен Гарант, Томас Леннон
Сценарий: Люк Бессон, Стив Чэсмэн, Ира Шуман

Бюджет: $25 000 000
Премьера в мире: 6 октября 2004



В ролях: Энн-Маргрет, Дженнифер Эспозито, Жизель Бюндхен, Джимми Фэллон, Куин Лэтифа, Джулиан МакМахон.

Описание: Лихачка Белль Уильямс самый быстрый таксист Нью-Йорка. Но Белль не для того превращала свой "кэб" в ракету, чтобы до конца жизни развозить клиентов. Она мечтает о победе в настоящих соревнованиях гонщиков. И она близка к осуществлению своей мечты, пока на ее пути не встает полицейский Энди Уошберн, талантливый сыщик и совершенно бесталанный водитель. Уошберн, попавший в немилость у начальства за полное фиаско за рулем, преследует банду грабительниц банков под предводительством Ванессы, холодной, расчетливой красавицы. У Уошберна нет водительских прав, и он рассчитывает угнаться за Ванессой и ее сподручными с помощью Белль. Белль получает карт-бланш на любую скорость и езду без правил. Так самая необычная в истории Нью-Йорка парочка полицейских без машины, и одержимая скоростью таксистка начинает игру в кошки-мышки с хитроумными грабителями. И они могут рассчитывать на победу, если только не поубивают друг друга раньше, чем обезвредят преступников.

Качество: BDRip 720p
Формат: MKV
Видео кодек: H.264
Аудио кодек: AC3, DTS
Видео: 1280x544, 23.976 fps, x264@L4.1, ~4932 Kbps
Аудио#1: Русский: AC3, 48 kHz, 5.1 ch, ~384 kbps
Аудио#2: Английский: DTS , 48 kHz, 5.1 ch, ~1510 kbps



Общее
Уникальный идентификатор : 198803903242342839276747523435862760719 (0x95903D312BEDFE95BB6D04D5F4111D0F)
Полное имя : J:New York Taxi.2004.BDRip-720p.mkv
Формат : Matroska
Версия формата : Version 1
Размер файла : 4,63 Гбайт
Продолжительность : 1 ч. 37 м.
Общий поток : 6824 Кбит/сек
Дата кодирования : UTC 2010-05-12 15:02:01
Программа кодирования : mkvmerge v2.4.0 ('Fumbling Towards Ecstasy') built on Oct 11 2008 20:13:15
Библиотека кодирования : libebml v0.7.7 + libmatroska v0.8.1

Видео
Идентификатор : 1
Формат : AVC
Формат/Информация : Advanced Video Codec
Профиль формата : High@L4.1
Параметр CABAC формата : Да
Параметр ReFrames формата : 12 кадров
Идентификатор кодека : V_MPEG4/ISO/AVC
Продолжительность : 1 ч. 37 м.
Битрейт : 4795 Кбит/сек
Ширина : 1280 пикселей
Высота : 544 пикселя
Соотношение сторон : 2,35:1
Режим частоты кадров : Постоянный
Частота кадров : 23,976 кадра/сек
Цветовое пространство : YUV
Субдискретизация насыщенности : 4:2:0
Битовая глубина : 8 бит
Тип развёртки : Прогрессивная
Бит/(Пиксели*Кадры) : 0.287
Размер потока : 3,25 Гбайт (70%)
Заголовок : x264_L4.1 @ 4932 Kbps
Язык : English
Default : Да
Forced : Нет

Аудио #1
Идентификатор : 2
Формат : AC-3
Формат/Информация : Audio Coding 3
Расширение режима : CM (complete main)
Параметр Endianness формата : Big
Идентификатор кодека : A_AC3
Продолжительность : 1 ч. 37 м.
Вид битрейта : Постоянный
Битрейт : 384 Кбит/сек
Каналы : 6 каналов
Расположение каналов : Front: L C R, Side: L R, LFE
Частота : 48,0 КГц
Битовая глубина : 16 бит
Метод сжатия : С потерями
Размер потока : 267 Мбайт (6%)
Заголовок : Dub AC3 5.1 @ 384 Kbps
Язык : Russian
Default : Да
Forced : Нет

Аудио #2
Идентификатор : 3
Формат : DTS
Формат/Информация : Digital Theater Systems
Режим : 16
Параметр Endianness формата : Big
Идентификатор кодека : A_DTS
Продолжительность : 1 ч. 37 м.
Вид битрейта : Постоянный
Битрейт : 1509 Кбит/сек
Каналы : 6 каналов
Расположение каналов : Front: L C R, Side: L R, LFE
Частота : 48,0 КГц
Битовая глубина : 24 бит
Метод сжатия : С потерями
Размер потока : 1,02 Гбайт (22%)
Заголовок : English DTS 5.1 @ 1.5 Mbps
Язык : English
Default : Нет
Forced : Нет

Текст #1
Идентификатор : 4
Формат : UTF-8
Идентификатор кодека : S_TEXT/UTF8
Идентификатор кодека/Информация : UTF-8 Plain Text
Язык : Russian
Default : Да
Forced : Нет

Текст #2
Идентификатор : 5
Формат : UTF-8
Идентификатор кодека : S_TEXT/UTF8
Идентификатор кодека/Информация : UTF-8 Plain Text
Заголовок : English SDH
Язык : English
Default : Нет
Forced : Нет
pb.wtf



Скачать Нью-Йоркское такси через торрент http://5.firepic.org/5/images/2013-08/05/xey8tgfzepuc.jpg Скачать фильм Нью-Йоркское такси через торрент бесплантно в хорошем качестве Описание: Лихачка Белль Уильямс самый быстрый таксист Нью-Йорка. Но Белль не для того превращала свой "кэб" в ракету, чтобы до конца жизни ... 10 10 12
Info! Золотая раздача, скачанное не засчитывается.
Торрент: Зарегистрирован [2013-08-05 18:24] · скачан: 76 раз
Статус: √ проверено
Размер: 4.63 GB
Как cкачать? Как скачать Нью-Йоркское такси через торрент | qTorrent

% Раздел Тема Автор DL S | L
Фильмы [HD 720p, 1080p] (Хороший звук DUB, MVO) [ 8.2 GB ] Нью-Йоркское такси / Taxi / New York Taxi [2004 BDRip 1080p ] Артронах Скачать
1 | 0

28-11-2019 20:33  

Отключить всю рекламу на сайте

    Дорогой пользователь! Огромная просьба, поблагодарите релизера, оцените раздачу и оставьте свои комментарий, если Вы скачали Нью-Йоркское такси через торрент бесплатно! Внесите свою лепту в развитие PiratBit!
    Комментировать посты могут только пользователи прошедшие не сложную регистрацию
    Показать сообщения:    

    Нью-Йоркское такси через торрент
    Скачать бесплатно Нью-Йоркское такси
    Нью-Йоркское такси скачать торрент
    Нью-Йоркское такси смотреть онлайн
    Cкачать фильм Нью-Йоркское такси бесплатно
    Нью-Йоркское такси скачать торрент в хорошем качестве
    Нью-Йоркское такси смотреть онлайн бесплатно в хорошем качестве


    Вы не можете начинать темы
    Вы не можете отвечать на сообщения
    Вы не можете редактировать свои сообщения
    Вы не можете удалять свои сообщения
    Вы не можете голосовать в опросах
    Вы не можете прикреплять файлы к сообщениям
    Вы можете скачивать файлы