Ссылка на приватное зеркало нашего сайта всего за 1$. Внимание количество ограничено!!!

2 сезон

iTunes

1 сезон

1

2 сезон

2 сезон

iTunes

1 сезон

RePack

30

Ultimate

ВАЖНО

ИГРА 18+

pack

RePack

MK11
pack

Забери бонус

RePack

jed

!!Акция!!

Alien_Rage

RePack

fifa19

RePack

Assassins Creed: Odyssey

RePack

NEED FOR SPEED™ PAYBACK

4 сезон

9 сезон

Бесстыжие 9 сезон

Все сериалы

все сериалы на PB.wtf

RePack

FAR CRY 5
  

Шакал / The Jackal (Майкл Кейтон-Джонс) [1997 г., боевик, триллер, криминал, BDRip 720p, 3 AVO] pb.wtf

Шакал через торрент pb.wtf

Размер: 6.34 GB | Добавлен: 7 лет 3 мес. назад | Торрент скачан:81 раз
Скачать  

12-08-2013 20:37 Шакал Скачать торрент  


Год выпуска: 1997
Страна: США, Великобритания, Франция, Германия
Жанр: боевик, триллер, криминал,
Продолжительность: 02:04:29
Перевод: Авторский (закадровый)




Режиссер: Майкл Кейтон-Джонс
Продюссер: Майкл Кейтон-Джонс, Шон Дэниэл
Сценарий: Чак Пфаррер




6.20 (64 034)
В ролях: Брюс Уиллис / Bruce Willis, Ричард Гир / Richard Gere, Сидни Пуатье / Sidney Poitier, Дайан Венора / Diane Venora,




Описание: «Шакал» — это кличка. Под ней скрывается один из самых неуловимых преступников международного масштаба, наемный киллер, выполняющий самые сложные задания тех «работодателей», кто способен заплатить немалые деньги. После того, как в московском ночном клубе прошла совместная операция американских спецслужб и российской милиции, был убит один из главарей русской мафии, брат покойного обратился к Шакалу и сделал «заказ».

Информация об этом просочилась в ФБР. Стало ясно, что целью киллера является кто-то «на самом верху» Белого дома. Чтобы остановить Шакала, американцы выпускают из тюрьмы ирландского террориста Деклана Малкуина, у которого свои счеты с Шакалом и который — единственный! — знает наемного убийцу в лицо…




Подробнее о фильме www.kinopoisk.ru/film/4132/




Качество: BDRip [720p]

Формат: MKV

Видео кодек: H.264

Аудио кодек: DTS

Видео: 1280 x 544, ( 2.35:1 ), 23.976 fps, x264 (High@L4.1), 3525 Kbps

Аудио#1: DTS, 6 ch, 1509Kbps, 48.0kHz, AVO (Гаврилов)

Аудио#2: DTS, 6 ch, 1509Kbps, 48.0kHz, AVO (Живов)

Аудио#3: DTS, 6 ch, 755Kbps, 48.0kHz, AVO (Горчаков)




Полное имя : D:The.Jackal.1997.720p.BDRip by RodDog.mkv
Формат : Matroska
Версия формата : Version 2
Размер файла : 6,34 Гбайт
Продолжительность : 2 ч. 4 м.
Общий поток : 7290 Кбит/сек
Название фильма : The Jackal (1997) - by RodDog
Дата кодирования : UTC 2013-08-12 19:49:18
Программа кодирования : mkvmerge v5.7.0 ('The Whirlwind') built on Jul 8 2012 20:08:51
Библиотека кодирования : libebml v1.2.3 + libmatroska v1.3.0

Видео
Идентификатор : 1
Формат : AVC
Формат/Информация : Advanced Video Codec
Профиль формата : High@L4.1
Параметр CABAC формата : Да
Параметр ReFrames формата : 9 кадров
Режим смешивания : Header stripping
Идентификатор кодека : V_MPEG4/ISO/AVC
Продолжительность : 2 ч. 4 м.
Битрейт : 3525 Кбит/сек
Ширина : 1280 пикселей
Высота : 544 пикселя
Соотношение сторон : 2,35:1
Режим частоты кадров : Постоянный
Частота кадров : 23,976 кадра/сек
Цветовое пространство : YUV
Субдискретизация насыщенности : 4:2:0
Битовая глубина : 8 бит
Тип развёртки : Прогрессивная
Бит/(Пиксели*Кадры) : 0.211
Размер потока : 2,93 Гбайт (46%)
Заголовок : The Jackal (1997) - by RodDog
Библиотека кодирования : x264 core 102 r1666 d058f37
Настройки программы : cabac=1 / ref=9 / deblock=1:-3:-3 / analyse=0x3:0x133 / me=umh / subme=9 / psy=1 / psy_rd=0.90:0.10 / mixed_ref=1 / me_range=40 / chroma_me=1 / trellis=2 / 8x8dct=1 / cqm=0 / deadzone=21,11 / fast_pskip=0 / chroma_qp_offset=-5 / threads=12 / sliced_threads=0 / nr=0 / decimate=1 / interlaced=0 / constrained_intra=0 / bframes=7 / b_pyramid=2 / b_adapt=2 / b_bias=0 / direct=3 / weightb=1 / open_gop=0 / weightp=2 / keyint=250 / keyint_min=25 / scenecut=40 / intra_refresh=0 / rc_lookahead=40 / rc=2pass / mbtree=0 / bitrate=3525 / ratetol=1.0 / qcomp=0.60 / qpmin=10 / qpmax=51 / qpstep=4 / cplxblur=20.0 / qblur=0.5 / vbv_maxrate=50000 / vbv_bufsize=50000 / ip_ratio=1.40 / pb_ratio=1.30 / aq=1:0.80 / nal_hrd=none
Язык : English
Default : Да
Forced : Нет

Аудио #1
Идентификатор : 2
Формат : DTS
Формат/Информация : Digital Theater Systems
Режим : 16
Параметр Endianness формата : Big
Режим смешивания : Header stripping
Идентификатор кодека : A_DTS
Продолжительность : 2 ч. 4 м.
Вид битрейта : Постоянный
Битрейт : 1509 Кбит/сек
Каналы : 6 каналов
Расположение каналов : Front: L C R, Side: L R, LFE
Частота : 48,0 КГц
Битовая глубина : 24 бит
Метод сжатия : С потерями
Размер потока : 1,31 Гбайт (21%)
Заголовок : DTS 5.1ch 1510 kbps - Одноголосый, А.Гаврилов
Язык : Russian
Default : Нет
Forced : Нет

Аудио #2
Идентификатор : 3
Формат : DTS
Формат/Информация : Digital Theater Systems
Режим : 16
Параметр Endianness формата : Big
Режим смешивания : Header stripping
Идентификатор кодека : A_DTS
Продолжительность : 2 ч. 4 м.
Вид битрейта : Постоянный
Битрейт : 1509 Кбит/сек
Каналы : 6 каналов
Расположение каналов : Front: L C R, Side: L R, LFE
Частота : 48,0 КГц
Битовая глубина : 24 бит
Метод сжатия : С потерями
Размер потока : 1,31 Гбайт (21%)
Заголовок : DTS 5.1ch 1510 kbps - Одноголосый, Ю.Живов
Язык : Russian
Default : Нет
Forced : Нет

Аудио #3
Идентификатор : 4
Формат : DTS
Формат/Информация : Digital Theater Systems
Режим : 16
Параметр Endianness формата : Big
Режим смешивания : Header stripping
Идентификатор кодека : A_DTS
Продолжительность : 2 ч. 4 м.
Вид битрейта : Постоянный
Битрейт : 755 Кбит/сек
Каналы : 6 каналов
Расположение каналов : Front: L C R, Side: L R, LFE
Частота : 48,0 КГц
Битовая глубина : 24 бит
Метод сжатия : С потерями
Размер потока : 672 Мбайт (10%)
Заголовок : DTS 5.1ch 755 kbps - Одноголосый, В.Горчаков
Язык : Russian
Default : Нет
Forced : Нет
pb.wtf



Скачать Шакал через торрент http://pic.kartinco.top/images/3/hqvhvhxbth.png Скачать фильм Шакал через торрент бесплантно в хорошем качестве Описание: «Шакал» — это кличка. Под ней скрывается один из самых неуловимых преступников международного масштаба, наемный киллер, ... 10 10 9
Info! Золотая раздача, скачанное не засчитывается.
Торрент: Зарегистрирован [2013-08-12 20:37] · скачан: 81 раз
Статус: √ проверено
Размер: 6.34 GB
Как cкачать? Как скачать Шакал через торрент | qTorrent

% Раздел Тема Автор DL S | L
Фильмы с авторской озвучкой [ 1.24 GB ] Шакал / The Jackal [1997 HDRip] [AVO] killermax2013 Скачать
1 | 0
# Фильмы (HD 720p, 1080p) (48-60 fps) [ 1.93 GB ] Шакал / The Jackal [1997 BDRip - HEVC 1080p 12 bit 60 FPS] ПМ [Киномания] dd2d3 Скачать
1 | 0
Фильмы с авторской озвучкой [ 2.06 GB ] Шакал / The Jackal [1997 BDRip] [AVO] killermax2013 Скачать
1 | 0
Фильмы [HD 720p, 1080p] (Хороший звук DUB, MVO) [ 18.68 GB ] Шакал / The Jackal [1997 BDRip 1080p by msltel] DUB 5 x MVO DVO 6 x AVO VO msltel Скачать
1 | 0
Фильмы [HD 720p, 1080p] (Хороший звук DUB, MVO) [ 8.05 GB ] Шакал / The Jackal [1997 BDRip 720p by msltel] DUB 5 x MVO DVO 6 x AVO VO msltel Скачать
1 | 0
Фильмы (Blu-ray, BD-Remux, HDDVD) [ 36.48 GB ] Шакал / The Jackal [1997 BDRemux 1080p] 2xMVO + 5xAVO sheker187 Скачать
1 | 0
Фильмы [HD 720p, 1080p] (Хороший звук DUB, MVO) [ 4.76 GB ] Шакал / The Jackal [1997 BDRip 1080p HEVC ] Мичман37 Скачать
1 | 0

28-11-2019 20:33  

Отключить всю рекламу на сайте

13-08-2013 15:51 Шакал Скачать торрент  

Спасибо,ещё раз просмотрю.pb.wtf



13-08-2013 16:16 Шакал Скачать торрент  

спасибо хотел посмотреть в качестве после касетиpb.wtf



21-08-2013 18:29 Шакал Скачать торрент  

фильм хороший. но дубляж (извените)поганый.
раздающему спасибо.pb.wtf



16-09-2013 09:32 Шакал Скачать торрент  

Раздайте пожалуйстаpb.wtf



    Дорогой пользователь! Огромная просьба, поблагодарите релизера, оцените раздачу и оставьте свои комментарий, если Вы скачали Шакал через торрент бесплатно! Внесите свою лепту в развитие PiratBit!
    Комментировать посты могут только пользователи прошедшие не сложную регистрацию
    Показать сообщения:    

    Шакал через торрент
    Скачать бесплатно Шакал
    Шакал скачать торрент
    Шакал смотреть онлайн
    Cкачать фильм Шакал бесплатно
    Шакал скачать торрент в хорошем качестве
    Шакал смотреть онлайн бесплатно в хорошем качестве


    Вы не можете начинать темы
    Вы не можете отвечать на сообщения
    Вы не можете редактировать свои сообщения
    Вы не можете удалять свои сообщения
    Вы не можете голосовать в опросах
    Вы не можете прикреплять файлы к сообщениям
    Вы можете скачивать файлы