Всегда рабочее зеркало без VPN и Proxy просто перед .vidak.icu напиши любое слово или цифру, Пример http://yj9y.vidak.icu

MVO

Лицензия

1 сезон

1

1 сезон

iTunes

1 сезон

13

1 сезон

Deluxe

pack

Рекомендуем

Пиратка

30

ВАЖНО

RePack

MK11

RePack

jed

RePack

fifa19

RePack

RDR2

RePack

NEED FOR SPEED™ PAYBACK

Кинопоиск HD

6 сезон

 Острые козырьки 6 сезон

Все сериалы

все сериалы на PB.wtf

RePack

FAR CRY 5
  
Magnet ссылка

Уличный боец / Arena of the Street Fighter (Майк Мёллер / Mike Möller) [ 2012 , Германия , боевик , HDRip ] MVO [НТВ+] pb.wtf

Уличный боец через торрент pb.wtf

Размер: 1.37 GB | Добавлен: 8 лет 10 мес. назад | Торрент скачан:481 раз
Смотреть онлайн Уличный боец | Скачать    Ребята, помогите собрать деньги на оплату серверов!!!

16-08-2013 21:59 Уличный боец Скачать торрент  

Уличный боец / Arena of the Street FighterГод выпуска: 2012
Страна: Германия
Жанр: боевик
Продолжительность: 01:44:19
Перевод: Профессиональный (многоголосый, закадровый) [НТВ+]
Субтитры: Нет
Режиссер: Майк Мёллер / Mike Möller
В ролях: Майк Мёллер (Mikey), Фолькрам Чише (Slater), Оливер Юрс (Rene), Матис Ландвер (Mathis), Алистер Мадзотти (CEO), Нико Зентнер (Chief Henriksen), Спирос Анастассиадис (Gang Member), Михаэль Борнхюттер (Tramp), Майкл Браун (Chris), Нажели Чумана (Mia), Зиго Хейниш (Prison Officer), Бернхард Хефнер (Ben)
Описание:
«Упыри» - самая ужасная и жестокая банда в городе беззакония, в котором банды правят улицами. Жестокий и кровожадный убийца, Кровельщик - их вожак. Город - его территория. Майки и его друзья не входят ни в одну из банд. Майки живёт на окраине, он дерзок и постоянно попадает в передряги. Его названный брат Матис и друзья пытаются, как могут, избежать проблем. Месть становится мотивом для Майки, когда его брата убивают. Чтобы отомстить за смерть Матиса, Майки должен сразиться с теми, кто несёт ответственность за его безвременную кончину. С этой целью Майки тренирует тело и разум. Он готовится участвовать в турнире, который организуют крупнейшие банды. «Упыри» и Кровельщик становятся для него самым заклятым врагом. Врагом, которого можно одолеть только с помощью своих друзей.
Рейтинг
kinopoisk.ru: 4.400 (82)
imdb.com: 3.00 (323)
Качество: HDRip
Формат: AVI
Видео кодек: XviD
Аудио кодек: AC3
Видео: XviD, 720x304 (2.35:1), 1678 kbps, 25 fps, 0,307 bpp
Аудио: AC3 / 2.0 / 48 kHz / 192 kbps / 16 bit

General
Complete name : D:ТорентыYli4nyj.boec.2012.P.HDRip.1400Mb.avi
Format : AVI
Format/Info : Audio Video Interleave
File size : 1.37 GiB
Duration : 1h 44mn
Overall bit rate : 1 877 Kbps
Writing application : VirtualDubMod 1.5.10.2 (build 2540/release)
Writing library : VirtualDubMod build 2540/release

Video
ID : 0
Format : MPEG-4 Visual
Format profile : Advanced Simple@L5
Format settings, BVOP : 2
Format settings, QPel : No
Format settings, GMC : No warppoints
Format settings, Matrix : Default (MPEG)
Codec ID : XVID
Codec ID/Hint : XviD
Duration : 1h 44mn
Bit rate : 1 679 Kbps
Width : 720 pixels
Height : 304 pixels
Display aspect ratio : 2.35:1
Frame rate : 25.000 fps
Color space : YUV
Chroma subsampling : 4:2:0
Bit depth : 8 bits
Scan type : Progressive
Compression mode : Lossy
Bits/(Pixel*Frame) : 0.307
Stream size : 1.22 GiB (89%)
Writing library : XviD 1.2.1 (UTC 2008-12-04)

Audio
ID : 1
Format : AC-3
Format/Info : Audio Coding 3
Mode extension : CM (complete main)
Codec ID : 2000
Duration : 1h 42mn
Bit rate mode : Constant
Bit rate : 192 Kbps
Channel(s) : 2 channels
Channel positions : Front: L R
Sampling rate : 48.0 KHz
Bit depth : 16 bits
Compression mode : Lossy
Stream size : 141 MiB (10%)
Alignment : Split accross interleaves
Interleave, duration : 41 ms (1.02 video frame)
Interleave, preload duration : 500 ms
pb.wtf



Скачать Уличный боец через торрент http://i5.imageban.ru/out/2013/08/17/1c8c8755011e2b1655803515bf41e5d6.jpg Скачать, смотреть онлайн Уличный боец бесплантно в хорошем качестве Описание: «Упыри» - самая ужасная и жестокая банда в городе беззакония, в котором банды правят улицами. Жестокий и кровожадный убийца, ... 9.3 10 26
Info! Золотая раздача, скачанное не засчитывается.
Торрент: Зарегистрирован [2013-08-16 21:59] · скачан: 481 раз
Статус: √ проверено
Размер: 1.37 GB
Как cкачать? Как скачать Уличный боец через торрент | UTorrent

28-11-2019 20:33  

Отключить всю рекламу на сайте

17-08-2013 09:32 Уличный боец Скачать торрент  

не качать не буду мортал комбат куда лучшеpb.wtf



08-09-2013 15:26 Уличный боец Скачать торрент  

Хороший фильм )pb.wtf



    Дорогой пользователь! Огромная просьба, поблагодарите релизера, оцените раздачу и оставьте свои комментарий, если Вы скачали Уличный боец через торрент бесплатно!
    Комментировать посты могут только пользователи прошедшие не сложную регистрацию
    Показать сообщения:    

    Уличный боец через торрент
    Скачать бесплатно Уличный боец
    Уличный боец скачать торрент
    Уличный боец смотреть онлайн
    Cкачать фильм Уличный боец бесплатно
    Уличный боец скачать торрент в хорошем качестве
    Уличный боец смотреть онлайн бесплатно в хорошем качестве


    Вы не можете начинать темы
    Вы не можете отвечать на сообщения
    Вы не можете редактировать свои сообщения
    Вы не можете удалять свои сообщения
    Вы не можете голосовать в опросах
    Вы не можете прикреплять файлы к сообщениям
    Вы можете скачивать файлы