Лицензия

MVO

1

1 сезон

Лицензия

Лицензия

13

MVO

1 сезон

Deluxe Edition

pack

Рекомендуем

30

Repack

ВАЖНО

ВАЖНО

Ghostwire

RePack

jed

RePack

fifa19

RePack

RDR2

RePack

NEED FOR SPEED™ PAYBACK

RePack

Кинопоиск HD

 Острые козырьки 6 сезон

6 сезон

FAR CRY 6

RePack

Лицензия

MVO

1

1 сезон

1 сезон

Лицензия

  

Остров бессмертных / Immortal Island (Джо Ни / Joe Knee) [2011, США, ужасы, триллер, приключения, DVDRip, Профессиональный (двухголосый)

Остров бессмертных через торрент pb.wtf

Размер: 1.33 GB | Добавлен: 9 лет назад | Торрент скачан:183 раза
Смотреть онлайн Остров бессмертных | Скачать   

11-09-2013 13:39 Остров бессмертных Скачать торрент  

Остров бессмертных / Immortal Island


  • Год выпуска:2011
  • Страна:США
  • Жанр:ужасы, триллер, приключения
  • Продолжительность: 01:23:31
  • Перевод:Профессиональный (двухголосый)

  • Субтитры: Нет
    • Режиссер:Джо Ни / Joe Knee
    • Сценарий: Дэррин Каммингс / Darrin Cummings, Кристофер Дай / Christopher Dye, Джо Ни / Joe Knee, Пол Сильвер / Paul Silver, Robert W. Sterrett III
    • Продюсер: Пол Сильвер / Paul Silver, Robert W. Sterrett III, Адриан Брунори / Adrian Brunori, Джейсон Эмблер / Jason Ambler, Майкл Персивал / Michael Percival

  • В ролях:Кристиан Кэмпбелл (Agent Ron Cecil), Брайан Дролет (Locke), Эрик Скотт Вудс (Captain Jack), Стася Кроуфорд (Detective Rinoa Ames), Брэндон Родригес (Ed), Джим Клок (Agent Marlon Kain), Somali Rose Kletch (Katelyn), Дарла Делгадо (Haden), Том Ноуики (ER Doctor), Ромео Кларк (Witch Doctor), Бо Кейстер (Cid), Кайл Хэйнс (Zack)
    • Описание:
      Молодежи пришлось целый год копить деньги, чтобы отправиться в недельное путешествие. И вот она яхта, и волна за бортом, и остров. В пути капитан, как водится, рассказывает страшную историю. Но никто из пассажиров не боится – легенда есть легенда. Однако вскоре на родной берег вернется только одна девушка.

    • Качество:DVDRip
    • Формат:AVI
    • Видео кодек: XviD
    • Аудио кодек:AC3
    • Видео: XviD, 720x352 (2.045), 2096 kbps, 25 fps, 0,331 bpp
    • Аудио: AC3 / 2.0 / 48 kHz / 192 kbps / 16 bit


    General
    Complete name : D:ТорентыOstrov.bessmertnyh.2011.XviD.DVDRip.avi
    Format : AVI
    Format/Info : Audio Video Interleave
    File size : 1.33 GiB
    Duration : 1h 23mn
    Overall bit rate : 2 286 Kbps
    Writing application : VirtualDubModRus 1.5.10.2 (build 2542/release)
    Writing library : VirtualDubMod build 2542/release

    Video
    ID : 0
    Format : MPEG-4 Visual
    Format profile : Advanced [email protected]
    Format settings, BVOP : 1
    Format settings, QPel : No
    Format settings, GMC : No warppoints
    Format settings, Matrix : Default (H.263)
    Codec ID : XVID
    Codec ID/Hint : XviD
    Duration : 1h 23mn
    Bit rate : 2 097 Kbps
    Width : 720 pixels
    Height : 352 pixels
    Display aspect ratio : 2.045
    Frame rate : 25.000 fps
    Color space : YUV
    Chroma subsampling : 4:2:0
    Bit depth : 8 bits
    Scan type : Progressive
    Compression mode : Lossy
    Bits/(Pixel*Frame) : 0.331
    Stream size : 1.22 GiB (92%)
    Writing library : XviD 1.2.1 (UTC 2008-12-04)

    Audio
    ID : 1
    Format : AC-3
    Format/Info : Audio Coding 3
    Mode extension : CM (complete main)
    Codec ID : 2000
    Duration : 1h 18mn
    Bit rate mode : Constant
    Bit rate : 192 Kbps
    Channel(s) : 2 channels
    Channel positions : Front: L R
    Sampling rate : 48.0 KHz
    Bit depth : 16 bits
    Compression mode : Lossy
    Stream size : 108 MiB (8%)
    Alignment : Split accross interleaves
    Interleave, duration : 43 ms (1.07 video frame)
    Interleave, preload duration : 500 ms


    © Оформление by Vetal



  • Скачать Остров бессмертных через торрент http://i2-imageban-ru.translate.goog/out/2013/09/11/ce2ca07ce1bd5dca8ad2fe7ad22c0e9f.jpg Скачать, смотреть онлайн Остров бессмертных бесплантно в хорошем качестве Описание:Молодежи пришлось целый год копить деньги, чтобы отправиться в недельное путешествие. И вот она яхта, и волна за бортом, и остров. ... 8.5 10 14
    Info! Золотая раздача, скачанное не засчитывается.
    Торрент: Зарегистрирован [2013-09-11 13:39] · скачан: 183 раз
    Статус: √ проверено
    Размер: 1.33 GB
    Как cкачать? Как скачать Остров бессмертных через торрент | UTorrent

    28-11-2019 20:33  

    Отключить вcю реклaмy на сайте

    11-09-2013 15:57 Остров бессмертных Скачать торрент  

    Как фильм?Ни одного комента, наверно жутко интересный sarcastic



    11-09-2013 17:52 Остров бессмертных Скачать торрент  

    Semen b писал(а):

    Как фильм?Ни одного комента, наверно жутко интересный sarcastic

    +1



    12-09-2013 03:54 Остров бессмертных Скачать торрент  

    Semen b писал(а):

    Как фильм?

    IMDb: 2.70 (35)
    Треш



      Дорогой пользователь! Огромная просьба, поблагодарите релизера, оцените раздачу и оставьте свои комментарий, если Вы скачали Остров бессмертных через торрент бесплатно!!
      Комментировать посты могут только пользователи прошедшие не сложную регистрацию
      Показать сообщения:    


      Остров бессмертных через торрент
      Скачать бесплатно Остров бессмертных
      Остров бессмертных скачать торрент
      Остров бессмертных смотреть онлайн
      Cкачать фильм Остров бессмертных бесплатно
      Остров бессмертных скачать торрент в хорошем качестве
      Остров бессмертных смотреть онлайн бесплатно в хорошем качестве
      Вы не можете начинать темы
      Вы не можете отвечать на сообщения
      Вы не можете редактировать свои сообщения
      Вы не можете удалять свои сообщения
      Вы не можете голосовать в опросах
      Вы не можете прикреплять файлы к сообщениям
      Вы можете скачивать файлы