Ссылка на приватное зеркало нашего сайта всего за 1$. Внимание количество ограничено!!!

2 сезон

iTunes

1 сезон

1

2 сезон

2 сезон

iTunes

1 сезон

RePack

30

Ultimate

ВАЖНО

ИГРА 18+

pack

RePack

MK11
pack

Забери бонус

RePack

jed

!!Акция!!

Alien_Rage

RePack

fifa19

RePack

Assassins Creed: Odyssey

RePack

NEED FOR SPEED™ PAYBACK

4 сезон

9 сезон

Бесстыжие 9 сезон

Все сериалы

все сериалы на PB.wtf

RePack

FAR CRY 5
  

Мадагаскар: Антология / Madagascar: Antology (Эрик Дарнелл, Том МакГрат, Конрад Вернон) [2005, 2008, 2012, мультфильм, комедия, приключения, семейный, HDRip-AVC] DUB / от R.G. nICE Films pb.wtf

Мадагаскар: Антология через торрент pb.wtf

Размер: 4.35 GB | Добавлен: 8 лет 1 мес. назад | Торрент скачан:226 раз
Скачать  

03-09-2012 17:49 Мадагаскар: Антология Скачать торрент  

Мадагаскар: Антология / Madagascar: Antology
Мадагаскар: Антология / Madagascar: Antology
Мадагаскар / Madagascar
«Они не были рождены в дикой местности... Их перевезли туда...»



Год выпуска: 2005
Страна: США
Жанр: мультфильм, комедия, приключения, семейный
Продолжительность: 01:25:58
Перевод: Профессиональный (полное дублирование) [Лицензия]

Режиссер: Эрик Дарнелл, Том МакГрат

В ролях: Бен Стиллер, Крис Рок, Дэвид Швиммер, Джада Пинкетт Смит, Саша Барон Коэн, Седрик «Развлекатель», Энди Рихтер, Том МакГрат, Кристофер Найтс, Крис Миллер

Описание: Четверо изнеженных животных из Центрального зоопарка в Нью-Йорке — лев Алекс, зебра Марти, жираф Мелман и гиппопотамиха Глория — решаются на побег. Оказавшись после кораблекрушения на экзотическом острове Мадагаскар, населенном лемурами и поедающими их фоссами, путешественники с ужасом понимают, что с городскими привычками им придется распрощаться.

Здесь нет людей, любимых клеток, вкусной кормежки. Начинается шоу «Последний герой» только с животными — нашим друзьям нужно выжить в непривычной среде обитания, где на каждом шагу подстерегает опасность…


|

Качество: HDRip-AVC (Rip by Demonessa)
Исходник: BDRip 1080p
Формат: MKV
Видео кодек: H.264
Аудио кодек: AC3
Видео: H.264, 1024*576, 23,976 кадр/сек, 2035 Кбит/сек, 0.144 Бит/(Пиксели*Кадры)
Аудио: AC3, 384 Кбит/сек, 6 каналов, 48,0 КГц

Код:

-[NoImage] x264 [info]: frame I:1416  Avg QP:16.60  size: 94492  PSNR Mean Y:46.35 U:49.65 V:49.80 Avg:47.04 Global:45.83
-[NoImage] x264 [info]: frame P:48324 Avg QP:20.20  size: 17836  PSNR Mean Y:43.65 U:52.08 V:51.78 Avg:44.59 Global:43.02
-[NoImage] x264 [info]: frame B:73931 Avg QP:22.56  size:  4118  PSNR Mean Y:43.62 U:47.77 V:47.91 Avg:44.51 Global:43.14
-[NoImage] x264 [info]: consecutive B-frames: 14.6% 19.4% 15.6% 20.9% 18.4%  8.7%  1.2%  1.1%

Код:

Общее
Уникальный идентификатор                 : 220874083422280225994618695554567022851 (0xA62ACD1636BA4AE5BE4759F216FCA903)
Полное имя                               : E:VideoR.G. nICE Films (Rips by Demonessa)МультфильмыМадагаскар (Антология)Мадагаскар Rip by Demonessa.mkv
Формат                                   : Matroska
Версия формата                           : Version 2
Размер файла                             : 1,45 Гбайт
Продолжительность                        : 1 ч. 25 м.
Общий поток                              : 2421 Кбит/сек
Дата кодирования                         : UTC 2012-09-02 14:22:13
Программа кодирования                    : mkvmerge v5.6.0 ('Kenya Kane') built on May 27 2012 16:44:04
Библиотека кодирования                   : libebml v1.2.3 + libmatroska v1.3.0

Видео
Идентификатор                            : 1
Формат                                   : AVC
Формат/Информация                        : Advanced Video Codec
Профиль формата                          : High@L4.1
Параметр CABAC формата                   : Да
Параметр ReFrames формата                : 10 кадров
Идентификатор кодека                     : V_MPEG4/ISO/AVC
Продолжительность                        : 1 ч. 25 м.
Битрейт                                  : 2035 Кбит/сек
Ширина                                   : 1024 пикселя
Высота                                   : 576 пикселей
Соотношение сторон                       : 16:9
Частота кадров                           : 23,976 кадра/сек
Цветовое пространство                    : YUV
Субдискретизация насыщенности            : 4:2:0
Битовая глубина                          : 8 бит
Тип развёртки                            : Прогрессивная
Бит/(Пиксели*Кадры)                      : 0.144
Размер потока                            : 1,19 Гбайт (82%)
Заголовок                                : Rip by Demonessa
Библиотека кодирования                   : x264 core 125 r2200 999b753
Настройки программы                      : cabac=1 / ref=10 / deblock=1:-2:-1 / analyse=0x3:0x113 / me=umh / subme=9 / psy=1 / psy_rd=1.00:0.00 / mixed_ref=1 / me_range=32 / chroma_me=1 / trellis=2 / 8x8dct=1 / cqm=0 / deadzone=21,11 / fast_pskip=1 / chroma_qp_offset=-2 / threads=4 / lookahead_threads=1 / sliced_threads=0 / nr=0 / decimate=1 / interlaced=0 / bluray_compat=0 / constrained_intra=0 / bframes=7 / b_pyramid=2 / b_adapt=1 / b_bias=0 / direct=1 / weightb=1 / open_gop=0 / weightp=2 / keyint=240 / keyint_min=23 / scenecut=40 / intra_refresh=0 / rc_lookahead=40 / rc=2pass / mbtree=1 / bitrate=2035 / ratetol=1.0 / qcomp=0.70 / qpmin=10 / qpmax=51 / qpstep=4 / cplxblur=20.0 / qblur=0.5 / ip_ratio=1.40 / aq=1:1.00
Язык                                     : English
Default                                  : Да
Forced                                   : Нет

Аудио
Идентификатор                            : 2
Формат                                   : AC-3
Формат/Информация                        : Audio Coding 3
Расширение режима                        : CM (complete main)
Параметр Endianness формата              : Big
Идентификатор кодека                     : A_AC3
Продолжительность                        : 1 ч. 25 м.
Вид битрейта                             : Постоянный
Битрейт                                  : 384 Кбит/сек
Каналы                                   : 6 каналов
Расположение каналов                     : Front: L C R, Side: L R, LFE
Частота                                  : 48,0 КГц
Битовая глубина                          : 16 бит
Метод сжатия                             : С потерями
Размер потока                            : 236 Мбайт (16%)
Заголовок                                : Дубляж
Язык                                     : Russian
Default                                  : Да
Forced                                   : Нет

скриншот  скриншот  скриншот  скриншот  скриншот  скриншот  
Мадагаскар 2 / Madagascar: Escape 2 Africa
«Осторожно, звери возвращаются!»



Год выпуска: 2008
Страна: США
Жанр: мультфильм, комедия, приключения, семейный
Продолжительность: 01:29:24
Перевод: Профессиональный (полное дублирование) [Лицензия]

Режиссер: Эрик Дарнелл, Том МакГрат

В ролях: Бен Стиллер, Крис Рок, Дэвид Швиммер, Джада Пинкетт Смит, Саша Барон Коэн, Седрик «Развлекатель», Энди Рихтер, Берни Мак, Алек Болдуин, Шерри Шеперд

Описание: Полная опасностей жизнь на Мадагаскаре не оправдала ожиданий привыкших к комфорту Нью-Йоркского зоопарка животных — льва Алекса, зебры Марти, жирафа Мелмана и бегемотихи Глории — и друзья решают сбежать с острова. По случайности, всю компанию заносит в Африку, где Алекс встречает свою семью, с которой он был разлучен в детстве. Неожиданно для себя Алекс понимает, что после жизни в зоопарке у него гораздо меньше общего с родственниками, чем ему хотелось бы…

|

Качество: HDRip-AVC (Rip by Demonessa)
Исходник: BDRip 1080p
Формат: MKV
Видео кодек: H.264
Аудио кодек: AC3
Видео: H.264, 1024*576, 23,976 кадр/сек, 1942 Кбит/сек, 0.137 Бит/(Пиксели*Кадры)
Аудио: AC3, 384 Кбит/сек, 6 каналов, 48,0 КГц

Код:

-[NoImage] x264 [info]: frame I:1499  Avg QP:16.92  size: 80754  PSNR Mean Y:47.01 U:49.47 V:49.52 Avg:47.67 Global:47.18
-[NoImage] x264 [info]: frame P:52478 Avg QP:20.55  size: 16630  PSNR Mean Y:44.42 U:47.83 V:47.87 Avg:45.26 Global:44.59
-[NoImage] x264 [info]: frame B:74639 Avg QP:24.30  size:  4005  PSNR Mean Y:44.03 U:47.76 V:47.83 Avg:44.93 Global:44.32
-[NoImage] x264 [info]: consecutive B-frames: 13.3% 27.8% 16.9% 20.2% 15.0%  5.4%  0.9%  0.5%

Код:

Общее
Уникальный идентификатор                 : 223647406840886798163751668462017822026 (0xA840EC7CF92CEF088A0A76A754DBBD4A)
Полное имя                               : E:VideoR.G. nICE Films (Rips by Demonessa)МультфильмыМадагаскар (Антология)Мадагаскар 2 Rip by Demonessa.mkv
Формат                                   : Matroska
Версия формата                           : Version 2
Размер файла                             : 1,44 Гбайт
Продолжительность                        : 1 ч. 29 м.
Общий поток                              : 2313 Кбит/сек
Дата кодирования                         : UTC 2012-09-03 16:19:58
Программа кодирования                    : mkvmerge v5.6.0 ('Kenya Kane') built on May 27 2012 16:44:04
Библиотека кодирования                   : libebml v1.2.3 + libmatroska v1.3.0

Видео
Идентификатор                            : 1
Формат                                   : AVC
Формат/Информация                        : Advanced Video Codec
Профиль формата                          : High@L4.1
Параметр CABAC формата                   : Да
Параметр ReFrames формата                : 10 кадров
Идентификатор кодека                     : V_MPEG4/ISO/AVC
Продолжительность                        : 1 ч. 29 м.
Битрейт                                  : 1942 Кбит/сек
Ширина                                   : 1024 пикселя
Высота                                   : 576 пикселей
Соотношение сторон                       : 16:9
Частота кадров                           : 23,976 кадра/сек
Цветовое пространство                    : YUV
Субдискретизация насыщенности            : 4:2:0
Битовая глубина                          : 8 бит
Тип развёртки                            : Прогрессивная
Бит/(Пиксели*Кадры)                      : 0.137
Размер потока                            : 1,18 Гбайт (81%)
Заголовок                                : Rip by Demonessa
Библиотека кодирования                   : x264 core 125 r2200 999b753
Настройки программы                      : cabac=1 / ref=10 / deblock=1:-2:-1 / analyse=0x3:0x113 / me=umh / subme=9 / psy=1 / psy_rd=1.00:0.00 / mixed_ref=1 / me_range=32 / chroma_me=1 / trellis=2 / 8x8dct=1 / cqm=0 / deadzone=21,11 / fast_pskip=1 / chroma_qp_offset=-2 / threads=4 / lookahead_threads=1 / sliced_threads=0 / nr=0 / decimate=1 / interlaced=0 / bluray_compat=0 / constrained_intra=0 / bframes=7 / b_pyramid=2 / b_adapt=1 / b_bias=0 / direct=1 / weightb=1 / open_gop=0 / weightp=2 / keyint=240 / keyint_min=23 / scenecut=40 / intra_refresh=0 / rc_lookahead=40 / rc=2pass / mbtree=1 / bitrate=1942 / ratetol=1.0 / qcomp=0.70 / qpmin=10 / qpmax=51 / qpstep=4 / cplxblur=20.0 / qblur=0.5 / ip_ratio=1.40 / aq=1:1.00
Язык                                     : English
Default                                  : Да
Forced                                   : Нет

Аудио
Идентификатор                            : 2
Формат                                   : AC-3
Формат/Информация                        : Audio Coding 3
Расширение режима                        : CM (complete main)
Параметр Endianness формата              : Big
Идентификатор кодека                     : A_AC3
Продолжительность                        : 1 ч. 29 м.
Вид битрейта                             : Постоянный
Битрейт                                  : 384 Кбит/сек
Каналы                                   : 6 каналов
Расположение каналов                     : Front: L C R, Side: L R, LFE
Частота                                  : 48,0 КГц
Битовая глубина                          : 16 бит
Метод сжатия                             : С потерями
Размер потока                            : 246 Мбайт (17%)
Заголовок                                : Дубляж
Язык                                     : Russian
Default                                  : Да
Forced                                   : Нет

скриншот  скриншот  скриншот  скриншот  скриншот  скриншот  
Мадагаскар 3 / Madagascar 3: Europe's Most Wanted
«The world is sick. And we are the doctors.»



Год выпуска: 2012
Страна: США
Жанр: мультфильм
Продолжительность: 01:33:24
Перевод: Профессиональный (полное дублирование) [Лицензия]

Режиссер: Эрик Дарнелл, Том МакГрат, Конрад Вернон

В ролях: Бен Стиллер, Крис Рок, Дэвид Швиммер, Джада Пинкетт Смит, Саша Барон Коэн, Седрик «Развлекатель», Энди Рихтер, Том МакГрат, Фрэнсис МакДорманд, Джессика Честейн

Описание: Лев Алекс, зебра Марти, гиппопотамиха Глория и жираф Мелман, а также король Джулиан, Морис, Морт и Пингвины все еще пытаются вернуться в Нью-Йорк. На этот раз их путь пройдет через Европу, где они откроют свой цирк.

|

Качество: HDRip-AVC (Rip by Demonessa)
Исходник: BDRip 1080p
Формат: MKV
Видео кодек: H.264
Аудио кодек: AC3
Видео: H.264, 1024*576, 23,976 кадр/сек, 1842 Кбит/сек, 0.130 Бит/(Пиксели*Кадры)
Аудио: AC3, 384 Кбит/сек, 6 каналов, 48,0 КГц

Код:

---[NoImage] x264 [info]: frame I:2023  Avg QP:19.50  size: 66446  PSNR Mean Y:45.11 U:48.30 V:48.19 Avg:45.80 Global:45.19
---[NoImage] x264 [info]: frame P:64228 Avg QP:23.12  size: 14147  PSNR Mean Y:42.45 U:46.20 V:46.09 Avg:43.26 Global:42.58
---[NoImage] x264 [info]: frame B:68115 Avg QP:26.90  size:  3624  PSNR Mean Y:41.89 U:45.86 V:45.81 Avg:42.77 Global:42.23
---[NoImage] x264 [info]: consecutive B-frames: 19.1% 35.9% 19.5% 14.3%  8.1%  2.6%  0.3%  0.1%

Код:

Общее
Уникальный идентификатор                 : 184022214741454618964505837164852559242 (0x8A7163AE6D713B24AE0C3A4AFE0A3D8A)
Полное имя                               : E:VideoR.G. nICE Films (Rips by Demonessa)МультфильмыМадагаскар (Антология)Мадагаскар 3 Rip by Demonessa.mkv
Формат                                   : Matroska
Версия формата                           : Version 2
Размер файла                             : 1,45 Гбайт
Продолжительность                        : 1 ч. 33 м.
Общий поток                              : 2227 Кбит/сек
Дата кодирования                         : UTC 2012-10-08 13:05:42
Программа кодирования                    : mkvmerge v5.6.0 ('Kenya Kane') built on May 27 2012 16:44:04
Библиотека кодирования                   : libebml v1.2.3 + libmatroska v1.3.0

Видео
Идентификатор                            : 1
Формат                                   : AVC
Формат/Информация                        : Advanced Video Codec
Профиль формата                          : High@L4.1
Параметр CABAC формата                   : Да
Параметр ReFrames формата                : 10 кадров
Идентификатор кодека                     : V_MPEG4/ISO/AVC
Продолжительность                        : 1 ч. 33 м.
Битрейт                                  : 1842 Кбит/сек
Ширина                                   : 1024 пикселя
Высота                                   : 576 пикселей
Соотношение сторон                       : 16:9
Частота кадров                           : 23,976 кадра/сек
Цветовое пространство                    : YUV
Субдискретизация насыщенности            : 4:2:0
Битовая глубина                          : 8 бит
Тип развёртки                            : Прогрессивная
Бит/(Пиксели*Кадры)                      : 0.130
Размер потока                            : 1,17 Гбайт (81%)
Заголовок                                : Rip by Demonessa
Библиотека кодирования                   : x264 core 125 r2200 999b753
Настройки программы                      : cabac=1 / ref=10 / deblock=1:-2:-1 / analyse=0x3:0x113 / me=umh / subme=9 / psy=1 / psy_rd=1.00:0.00 / mixed_ref=1 / me_range=32 / chroma_me=1 / trellis=2 / 8x8dct=1 / cqm=0 / deadzone=21,11 / fast_pskip=1 / chroma_qp_offset=-2 / threads=4 / lookahead_threads=1 / sliced_threads=0 / nr=0 / decimate=1 / interlaced=0 / bluray_compat=0 / constrained_intra=0 / bframes=7 / b_pyramid=2 / b_adapt=1 / b_bias=0 / direct=1 / weightb=1 / open_gop=0 / weightp=2 / keyint=240 / keyint_min=23 / scenecut=40 / intra_refresh=0 / rc_lookahead=40 / rc=2pass / mbtree=1 / bitrate=1842 / ratetol=1.0 / qcomp=0.70 / qpmin=10 / qpmax=51 / qpstep=4 / cplxblur=20.0 / qblur=0.5 / ip_ratio=1.40 / aq=1:1.00
Язык                                     : English
Default                                  : Да
Forced                                   : Нет

Аудио
Идентификатор                            : 2
Формат                                   : AC-3
Формат/Информация                        : Audio Coding 3
Расширение режима                        : CM (complete main)
Параметр Endianness формата              : Big
Идентификатор кодека                     : A_AC3
Продолжительность                        : 1 ч. 33 м.
Вид битрейта                             : Постоянный
Битрейт                                  : 384 Кбит/сек
Каналы                                   : 6 каналов
Расположение каналов                     : Front: L C R, Side: L R, LFE
Частота                                  : 48,0 КГц
Битовая глубина                          : 16 бит
Метод сжатия                             : С потерями
Размер потока                            : 257 Мбайт (17%)
Заголовок                                : Дубляж (Чистый звук)
Язык                                     : Russian
Default                                  : Да
Forced                                   : Нет

скриншот  скриншот  скриншот  скриншот  скриншот  скриншот  
за обложку и лого спасибо shuller
Добавлена третья часть, звук с Лицензии.pb.wtf



Скачать Мадагаскар: Антология через торрент http://s002.youpic.su/pictures/1346616000/ea22686288199ec51bdc63182eca661c.png Скачать фильм Мадагаскар: Антология через торрент бесплантно в хорошем качестве Описание: Четверо изнеженных животных из Центрального зоопарка в Нью-Йорке — лев Алекс, зебра Марти, жираф Мелман и гиппопотамиха Глория — ... 10 10 12
Info! Золотая раздача, скачанное не засчитывается.
Торрент: Зарегистрирован [2012-10-11 18:47] · скачан: 226 раз
Статус: √ проверено
Размер: 4.35 GB
Как cкачать? Как скачать Мадагаскар: Антология через торрент | qTorrent



Последний раз редактировалось: Demonessa (2013-01-25 22:06), всего редактировалось 8 раз(а)

28-11-2019 20:33  

Отключить всю рекламу на сайте

04-09-2012 07:14 Мадагаскар: Антология Скачать торрент  

Demonessa писал(а):

На данный момент в раздаче присутствуют только 2 части! После выхода лицензии 3-й части раздача будет обновлена!

pb.wtf



08-10-2012 12:50 Мадагаскар: Антология Скачать торрент  

Добавлена третья часть пока с Чистым звуком.
С выходом Лицензии раздача будет обновлена.
pb.wtf



09-10-2012 14:11 Мадагаскар: Антология Скачать торрент  

третью лицензию добавишь, когда выйдет, обязательно скачаюpb.wtf



11-10-2012 18:54 Мадагаскар: Антология Скачать торрент  

Добавлена третья часть, звук с Лицензии.pb.wtf



24-09-2013 16:02 Мадагаскар: Антология Скачать торрент  

Поддайте скорости!!! Пиры вы где???pb.wtf



    Дорогой пользователь! Огромная просьба, поблагодарите релизера, оцените раздачу и оставьте свои комментарий, если Вы скачали Мадагаскар: Антология через торрент бесплатно! Внесите свою лепту в развитие PiratBit!
    Комментировать посты могут только пользователи прошедшие не сложную регистрацию
    Показать сообщения:    

    Мадагаскар: Антология через торрент
    Скачать бесплатно Мадагаскар: Антология
    Мадагаскар: Антология скачать торрент
    Мадагаскар: Антология смотреть онлайн
    Cкачать фильм Мадагаскар: Антология бесплатно
    Мадагаскар: Антология скачать торрент в хорошем качестве
    Мадагаскар: Антология смотреть онлайн бесплатно в хорошем качестве


    Вы не можете начинать темы
    Вы не можете отвечать на сообщения
    Вы не можете редактировать свои сообщения
    Вы не можете удалять свои сообщения
    Вы не можете голосовать в опросах
    Вы не можете прикреплять файлы к сообщениям
    Вы можете скачивать файлы