Ссылка на приватное зеркало нашего сайта всего за 1$. Внимание количество ограничено!!!

2 сезон

iTunes

1 сезон

1

2 сезон

2 сезон

iTunes

1 сезон

RePack

30

Ultimate

ВАЖНО

ИГРА 18+

pack

RePack

MK11
pack

Забери бонус

RePack

jed

!!Акция!!

Alien_Rage

RePack

fifa19

RePack

Assassins Creed: Odyssey

RePack

NEED FOR SPEED™ PAYBACK

4 сезон

9 сезон

Бесстыжие 9 сезон

Все сериалы

все сериалы на PB.wtf

RePack

FAR CRY 5
  

Вангелия / Серии: 12 из 12 (Сeргей Бoрчуков) [2013, Биография, драма, HDTV 1080i] pb.wtf

Вангелия через торрент pb.wtf

Размер: 36.14 GB | Добавлен: 6 лет 8 мес. назад | Торрент скачан:68 раз
Скачать  

20-09-2013 00:11 Вангелия Скачать торрент  

Вангелия


  • Год выпуска:2013
  • Страна:Россия
  • Жанр:драма, биография
  • Продолжительность: ~ 00:52:00
  • Перевод:Не требуется

  • Субтитры: Нет
    • Режиссер:Сергей Борчуков
    • Продюсер: Сергей Торчилин

  • В ролях:Елена Яковлева (Ванга в зрелом и пожилом возрасте), Ирина Рахманова (Ванга в молодости), Наталья Николаева (Вангелия, 14–18 лет), Даша Отрошко (Вангелия, 12 лет), Кристина Пакарина (Ванга в возрасте 7 лет), Карина Андоленко (Ольга, подруга Ванги), Таисия Вилкова (Снежана, подруга Ванги), Евгений Князев (отец Ванги), Анатолий Белый, Даниил Белых, Александра Платонова (Любка, сестра Ванги), Антон Макарский (муж Ванги в молодости)
    • Описание:
      Фильм рассказывает об известной болгарской целительнице и предсказательнице Ванге и даст возможность по-новому взглянуть на историю жизни самой загадочной женщины прошлого века - знаменитой болгарской пророчицы Ванги.

    • Качество:HDTV 1080i
    • Формат:MPEG-TS
    • Видео кодек:AVC
    • Аудио кодек:MP2
    • Видео: 1920x1080 (16:9) 25.000 fps 7 858 Kbps, 0.152 bit/pixel
    • Аудио: MPEG Audio 48000Hz stereo 192 Кбит/сек

    Внимание! Раздача ведётся путём добавления новых серий; при каждом добавлении создаётся новый торрент. Чтобы начать докачку новой серии, пользователям необходимо сделать следующее:
    (1) остановить скачивание,
    (2) удалить старый торрент у себя из клиента (старые серии удалять не надо),
    (3) скачать новый торрент и запустить его у себя в клиенте вместо старого, при этом указать клиенту путь в старую папку куда и должно происходить скачивание новых серий.
    Ваш клиент при этом должен произвести хеширование (проверку) старой папки (если не производит сам - помогите ему сделать это), и будет докачивать только те серии которых у вас ещё нет. Старые серии при этом не удаляются, а продолжают раздаваться!
    Eсли вы уже удалили старые серии, то предотвратить повторную закачку старых серий можно, отжав галочку в соответствующих местах при запуске нового торрента. По возможности, желательно не удалять старые серии как можно дольше чтобы релизёр не столько продолжал раздавать старые серии, а смог сконцентрироваться на новых.

    General
    ID : 1 (0x1)
    Complete name : D:ВыкладкаВангелия (2013, Сериал, Биографи, Драма, HDTV 1080i) (MYDIMKA)�1 серия.ts
    Format : MPEG-TS
    File size : 3.08 GiB
    Duration : 51mn 57s
    Overall bit rate mode : Variable
    Overall bit rate : 8 475 Kbps
    Video
    ID : 2931 (0xB73)
    Menu ID : 1 (0x1)
    Format : AVC
    Format/Info : Advanced Video Codec
    Format profile : High@L4.0
    Format settings, CABAC : Yes
    Format settings, ReFrames : 3 frames
    Codec ID : 27
    Duration : 51mn 57s
    Bit rate : 7 863 Kbps
    Width : 1 920 pixels
    Height : 1 080 pixels
    Display aspect ratio : 16:9
    Frame rate : 25.000 fps
    Color space : YUV
    Chroma subsampling : 4:2:0
    Bit depth : 8 bits
    Scan type : MBAFF
    Bits/(Pixel*Frame) : 0.152
    Stream size : 2.85 GiB (93%)
    Audio
    ID : 2932 (0xB74)
    Menu ID : 1 (0x1)
    Format : MPEG Audio
    Format version : Version 1
    Format profile : Layer 2
    Codec ID : 3
    Duration : 51mn 57s
    Bit rate mode : Constant
    Bit rate : 192 Kbps
    Channel(s) : 2 channels
    Sampling rate : 48.0 KHz
    Compression mode : Lossy
    Stream size : 71.4 MiB (2%)
    Language : Russian
    Text
    ID : 2934 (0xB76)-888
    Menu ID : 1 (0x1)
    Format : Teletext Subtitle
    Language : Russian
    Menu
    ID : 2930 (0xB72)
    Menu ID : 1 (0x1)
    Duration : 51mn 57s
    List : 2931 (0xB73) (AVC) / 2932 (0xB74) (MPEG Audio, Russian) / 2934 (0xB76) ()
    Language : / Russian
    скриншот   скриншот   скриншот  
    © Оформление by Vetalpb.wtf



  • Скачать Вангелия через торрент http://i1.imageban.ru/out/2013/09/18/aa141b29ac13b6c89136a1663a4cb4e1.png Скачать фильм Вангелия через торрент бесплантно в хорошем качестве Описание:Фильм рассказывает об известной болгарской целительнице и предсказательнице Ванге и даст возможность по-новому взглянуть на ... 9.7 10 19
    Торрент: Зарегистрирован [2014-03-20 20:29] · скачан: 68 раз
    Статус: √ проверено
    Размер: 36.14 GB
    Как cкачать? Как скачать Вангелия через торрент | qTorrent

    % Раздел Тема Автор DL S | L
    Наши сериалы [ 15.53 GB ] Вангелия / Серии: 1-12 из 12 [2013 биография 2xDVD9] R5 voovaz Скачать
    1 | 0
    Наши сериалы [ 7.04 GB ] Вангелия / Сезон: Серии: 1-12 из 12 [2013 биография SATRip] Ворон Скачать
    1 | 0


    Последний раз редактировалось: Ворон (2013-09-27 07:16), всего редактировалось 8 раз(а)

    28-11-2019 20:33  

    Отключить всю рекламу на сайте

    20-09-2013 13:05 Вангелия Скачать торрент  

    Соломон Немни
    Сори, перезалил смотрите
    http://sendfile.su/869777pb.wtf



    24-09-2013 01:19 Вангелия Скачать торрент  

    Добавлены 5 и 6 серии pb.wtf



    24-09-2013 21:18 Вангелия Скачать торрент  

    Добавлены 7 и 8 серии pb.wtf



    25-09-2013 21:26 Вангелия Скачать торрент  

    Добавлены
    9 и 10 серии
    pb.wtf



    27-09-2013 07:15 Вангелия Скачать торрент  

    Залиты заключительные 11 и 12 серии
    Сериал окончен.
    Приятного просмотра !!!
    pb.wtf



    28-09-2013 15:35 Вангелия Скачать торрент  

    Спасибо, оценим...pb.wtf



    03-11-2013 07:22 Вангелия Скачать торрент  

    Спасибо )))pb.wtf



      Дорогой пользователь! Огромная просьба, поблагодарите релизера, оцените раздачу и оставьте свои комментарий, если Вы скачали Вангелия через торрент бесплатно! Внесите свою лепту в развитие PiratBit!
      Комментировать посты могут только пользователи прошедшие не сложную регистрацию
      Показать сообщения:    

      Вангелия через торрент
      Скачать бесплатно Вангелия
      Вангелия скачать торрент
      Вангелия смотреть онлайн
      Cкачать фильм Вангелия бесплатно
      Вангелия скачать торрент в хорошем качестве
      Вангелия смотреть онлайн бесплатно в хорошем качестве


      Вы не можете начинать темы
      Вы не можете отвечать на сообщения
      Вы не можете редактировать свои сообщения
      Вы не можете удалять свои сообщения
      Вы не можете голосовать в опросах
      Вы не можете прикреплять файлы к сообщениям
      Вы можете скачивать файлы