Всегда рабочее зеркало без VPN и Proxy просто перед .vidak.icu напиши любое слово или цифру, Пример http://99h0.vidak.icu

Лицензия

MVO

1 сезон

1

1 сезон

iTunes

1 сезон

13

1 сезон

Deluxe

pack

Рекомендуем

Repack

30

ВАЖНО

RePack

MK11

RePack

jed

RePack

fifa19

RePack

RDR2

RePack

NEED FOR SPEED™ PAYBACK

Кинопоиск HD

6 сезон

 Острые козырьки 6 сезон

Все сериалы

все сериалы на PB.wtf

RePack

FAR CRY 5
  
Magnet ссылка

Вяземский Котел (Сергей Дубинкин) [2011 г., Документальный, DVDRip, Оригинал] pb.wtf

Вяземский Котел через торрент pb.wtf

Размер: 458 MB | Добавлен: 8 лет 10 мес. назад | Торрент скачан:141 раз
Смотреть онлайн Вяземский Котел | Скачать    Ребята, помогите собрать деньги на оплату серверов!!!

05-10-2013 06:43 Вяземский Котел Скачать торрент  

Вяземский Котел
Год выпуска: 2011
Страна: Россия
Жанр: Документальный,
Продолжительность: 00:39:45
Перевод: Оригинал

Режиссер: Сергей Дубинкин

Описание: Октябрь 1941 года. Хаос войны. В полном окружении под Вязьмой наши армии сражаются и гибнут за Москву. На этих страницах войны 50 лет стоял гриф "секретно". Чем же на самом деле была Вяземская битва: военным поражением или стратегической победой? Кем были погибшие и взятые в немецкий плен генералы и солдаты: предателями или героями? И почему Святейший Патриарх Кирилл назвал это сражение "Русской Голгофой"?

Качество: DVDRip
Формат: AVI
Видео кодек: XviD
Аудио кодек: MP3
Видео: XviD, 1492 Кбит/с, 720x544, 25.00fps
Аудио#1: MP3 , 2 ch, 128 Кбит/с 48,0 КГц
скриншот   скриншот   скриншот  

Видео
Идентификатор : 0
Формат : MPEG-4 Visual
Профиль формата : Advanced [email protected]
Параметр BVOP формата : 2
Параметр QPel формата : Нет
Параметр GMC формата : Без точки перехода
Параметр матрицы формата : Default (H.263)
Идентификатор кодека : XVID
Идентификатор кодека/Подсказка : XviD
Продолжительность : 39 м.
Битрейт : 1492 Кбит/сек
Ширина : 720 пикселей
Высота : 544 пикселя
Соотношение сторон : 4:3
Частота кадров : 25,000 кадров/сек
Цветовое пространство : YUV
Субдискретизация насыщенности : 4:2:0
Битовая глубина : 8 бит
Тип развёртки : Прогрессивная
Метод сжатия : С потерями
Бит/(Пиксели*Кадры) : 0.152
Размер потока : 418 Мбайт (91%)
Библиотека кодирования : XviD 63
Аудио
Идентификатор : 1
Формат : MPEG Audio
Версия формата : Version 1
Профиль формата : Layer 3
Идентификатор кодека : 55
Идентификатор кодека/Подсказка : MP3
Продолжительность : 39 м.
Продолжительность оригинала : 39 м.
Вид битрейта : Постоянный
Битрейт : 128 Кбит/сек
Каналы : 2 канала
Частота : 48,0 КГц
Метод сжатия : С потерями
Размер потока : 35,9 Мбайт (8%)
Выравнивание : Разделение по промежуткам
Продолжительность промежутка : 24 мс. (0,60 видеокадр)

pb.wtf



Скачать Вяземский Котел через торрент http://i59.fastpic.ru/big/2013/0926/5b/a454eec4d537b7de7bba794f4d6d9f5b.jpg Скачать, смотреть онлайн Вяземский Котел бесплантно в хорошем качестве Описание: Октябрь 1941 года. Хаос войны. В полном окружении под Вязьмой наши армии сражаются и гибнут за Москву. На этих страницах войны 50 ... 9.6 10 10
Info! Золотая раздача, скачанное не засчитывается.
Торрент: Зарегистрирован [2013-10-05 06:43] · скачан: 141 раз
Статус: √ проверено
Размер: 458 MB
Как cкачать? Как скачать Вяземский Котел через торрент | UTorrent

28-11-2019 20:33  

Отключить вcю реклaмy на сайте

    Дорогой пользователь! Огромная просьба, поблагодарите релизера, оцените раздачу и оставьте свои комментарий, если Вы скачали Вяземский Котел через торрент бесплатно!
    Комментировать посты могут только пользователи прошедшие не сложную регистрацию
    Показать сообщения:    

    Вяземский Котел через торрент
    Скачать бесплатно Вяземский Котел
    Вяземский Котел скачать торрент
    Вяземский Котел смотреть онлайн
    Cкачать фильм Вяземский Котел бесплатно
    Вяземский Котел скачать торрент в хорошем качестве
    Вяземский Котел смотреть онлайн бесплатно в хорошем качестве


    Вы не можете начинать темы
    Вы не можете отвечать на сообщения
    Вы не можете редактировать свои сообщения
    Вы не можете удалять свои сообщения
    Вы не можете голосовать в опросах
    Вы не можете прикреплять файлы к сообщениям
    Вы можете скачивать файлы