Ссылка на приватное зеркало нашего сайта всего за 1$. Внимание количество ограничено!!!

2 сезон

iTunes

1 сезон

1

2 сезон

2 сезон

iTunes

1 сезон

RePack

30

Новинка

ВАЖНО

ИГРА 18+

pack

RePack

MK11
pack

Забери бонус

RePack

jed

!!Акция!!

Alien_Rage

RePack

fifa19

RePack

Assassins Creed: Odyssey

RePack

NEED FOR SPEED™ PAYBACK

4 сезон

9 сезон

Бесстыжие 9 сезон

Все сериалы

все сериалы на PB.wtf

RePack

FAR CRY 5
  

Кадры / The Internship (Шон Леви / Shawn Levy) [ 2013 , США , комедия , BDRip 720p, Дубляж, Лицензия][UNRATED] pb.wtf

Кадры через торрент pb.wtf

Размер: 6.52 GB | Добавлен: 7 лет 1 мес. назад | Торрент скачан:1126 раз
Скачать  

10-10-2013 15:06 Кадры Скачать торрент  

Кадры / The InternshipГод выпуска: 2013
Страна: США
Жанр: комедия

Продолжительность: 02:05:01
Перевод: Дубляж, Лицензия
Субтитры: Русские, английские, эстонские, латышские, украинские, литовские
Режиссер: Шон Леви / Shawn Levy
В ролях: Винс Вон (Billy McMahon), Оуэн Уилсон (Nick Campbell), Роуз Бирн (Dana), Макс Мингелла (Graham Hawtrey), Аасиф Мандви (Mr. Chetty), Джош Бренер (Lyle), Дилан О’Брайэн (Stuart), Тия Сиркар (Neha), Тобит Рафаэль (Yo-Yo Santos), Джош Гад (Headphones), Джессика Зор (Marielena), Роб Риггл (Randy)
Описание: Билли и Ник всю жизнь занимаются продажами. Но новый компьютерный мир рушит их карьеру. Стараясь доказать, что они не отстали от жизни, они бросают вызов судьбе, получив желанную стажировку в компании Google вместе с командой лучших студентов колледжей. Но получить доступ в этот фантастический мир - это только половина дела. Сейчас им придется выдержать конкуренцию с самыми лучшими техническими гениями, чтобы доказать, что необходимость - это мать обновления.
Рейтинг
kinopoisk.ru: 7.263 (9230)
imdb.com: 6.30 (26 141)
MPAA: PG-13 - Детям до 13 лет просмотр не желателен
Качество: BDRip 720p
Формат: MKV
Видео кодек: AVC
Аудио кодек: AC3/DTS
Видео: AVC, 1280x544 (2.35:1), 4604 kbps, 23,976 fps, 0,276 bpp
Аудио №1: русский / AC3 / 5.1 / 48 kHz / 448 kbps / 16 bit ||
Аудио №2: русский / DTS / 5.1 / 48 kHz / 755 kbps / 24 bit ||
Аудио №3: английский / DTS / 5.1 / 48 kHz / 1510 kbps / 24 bit
Доп. информация: UNRATED версия длиннее театральной на ~ 7 мин. Полный перевод!
D:The.Internship.2013.UNRATED.720p.BluRay.Rus.Eng..mkv
General
Unique ID : 239142456080928708439019645086114872247 (0xB3E9296617AA2084AC546997EA717BB7)
Complete name : D:The.Internship.2013.UNRATED.720p.BluRay.Rus.Eng..mkv
Format : Matroska
Format version : Version 2
File size : 6.52 GiB
Duration : 2h 5mn
Overall bit rate : 7 466 Kbps
Encoded date : UTC 2013-10-10 12:29:31
Writing application : mkvmerge v6.3.0 ('You can't stop me!') built on Jun 28 2013 20:09:41
Writing library : libebml v1.3.0 + libmatroska v1.4.0
Video #1
ID : 1
Format : AVC
Format/Info : Advanced Video Codec
Format profile : High@L4.1
Format settings, CABAC : Yes
Format settings, ReFrames : 5 frames
Codec ID : V_MPEG4/ISO/AVC
Duration : 2h 5mn
Bit rate : 4 605 Kbps
Width : 1 280 pixels
Height : 544 pixels
Display aspect ratio : 2.35:1
Frame rate : 23.976 fps
Color space : YUV
Chroma subsampling : 4:2:0
Bit depth : 8 bits
Scan type : Progressive
Bits/(Pixel*Frame) : 0.276
Stream size : 4.02 GiB (62%)
Language : English
Default : Yes
Forced : No
Audio #2
ID : 2
Format : AC-3
Format/Info : Audio Coding 3
Mode extension : CM (complete main)
Format settings, Endianness : Big
Codec ID : A_AC3
Duration : 2h 5mn
Bit rate mode : Constant
Bit rate : 448 Kbps
Channel(s) : 6 channels
Channel positions : Front: L C R, Side: L R, LFE
Sampling rate : 48.0 KHz
Bit depth : 16 bits
Compression mode : Lossy
Stream size : 401 MiB (6%)
Language : Russian
Default : Yes
Forced : No
Audio #3
ID : 3
Format : DTS
Format/Info : Digital Theater Systems
Codec ID : A_DTS
Duration : 2h 5mn
Bit rate mode : Constant
Bit rate : 755 Kbps
Channel(s) : 6 channels
Channel positions : Front: L C R, Side: L R, LFE
Sampling rate : 48.0 KHz
Bit depth : 24 bits
Compression mode : Lossy
Stream size : 675 MiB (10%)
Language : Russian
Default : No
Forced : No
Audio #4
ID : 4
Format : DTS
Format/Info : Digital Theater Systems
Codec ID : A_DTS
Duration : 2h 5mn
Bit rate mode : Constant
Bit rate : 1 510 Kbps
Channel(s) : 6 channels
Channel positions : Front: L C R, Side: L R, LFE
Sampling rate : 48.0 KHz
Bit depth : 24 bits
Compression mode : Lossy
Stream size : 1.32 GiB (20%)
Language : English
Default : No
Forced : No
Text #5
ID : 5
Format : PGS
Muxing mode : zlib
Codec ID : S_HDMV/PGS
Codec ID/Info : The same subtitle format used on BDs/HD-DVDs
Language : English
Default : No
Forced : No
Text #6
ID : 6
Format : PGS
Muxing mode : zlib
Codec ID : S_HDMV/PGS
Codec ID/Info : The same subtitle format used on BDs/HD-DVDs
Language : English
Default : No
Forced : No
Text #7
ID : 7
Format : PGS
Muxing mode : zlib
Codec ID : S_HDMV/PGS
Codec ID/Info : The same subtitle format used on BDs/HD-DVDs
Language : Russian
Default : No
Forced : No
Text #8
ID : 8
Format : PGS
Muxing mode : zlib
Codec ID : S_HDMV/PGS
Codec ID/Info : The same subtitle format used on BDs/HD-DVDs
Language : Estonian
Default : No
Forced : No
Text #9
ID : 9
Format : PGS
Muxing mode : zlib
Codec ID : S_HDMV/PGS
Codec ID/Info : The same subtitle format used on BDs/HD-DVDs
Language : Latvian
Default : No
Forced : No
Text #10
ID : 10
Format : PGS
Muxing mode : zlib
Codec ID : S_HDMV/PGS
Codec ID/Info : The same subtitle format used on BDs/HD-DVDs
Language : Lithuanian
Default : No
Forced : No
Text #11
ID : 11
Format : PGS
Muxing mode : zlib
Codec ID : S_HDMV/PGS
Codec ID/Info : The same subtitle format used on BDs/HD-DVDs
Language : Ukrainian
Default : No
Forced : No
pb.wtf



Скачать Кадры через торрент http://pic.kartinco.top/images/4/9324x.jpg Скачать фильм Кадры через торрент бесплантно в хорошем качестве Описание: Билли и Ник всю жизнь занимаются продажами. Но новый компьютерный мир рушит их карьеру. Стараясь доказать, что они не отстали от ... 9.5 10 29
Info! Золотая раздача, скачанное не засчитывается.
Торрент: Зарегистрирован [2013-10-10 15:06] · скачан: 1 126 раз
Статус: √ проверено
Размер: 6.52 GB
Как cкачать? Как скачать Кадры через торрент | qTorrent

% Раздел Тема Автор DL S | L
Фильмы 2013 [DVDrip, WEB-DLRip, HDrip] [ 1.46 GB ] Кадры / The Internship [2013 BDRip-AVC ] [Расширенная версия] potroks Скачать
1 | 0
Фильмы 2013 [DVDrip, WEB-DLRip, HDrip] [ 1.37 GB ] Кадры / The Internship [UNRATED] [2013 HDRip ] MihailHD Скачать
1 | 0
Фильмы (DVD фильмы) [ 7.69 GB ] Кадры / The Internship [2013 DVD9] [] R5 voovaz Скачать
1 | 0
Фильмы 2013 [DVDrip, WEB-DLRip, HDrip] [ 2.19 GB ] Кадры / The Internship [2013 BDRip-AVC ] [Театральная версия] potroks Скачать
2 | 0
Фильмы 2013 [DVDrip, WEB-DLRip, HDrip] [ 2.05 GB ] Кадры / The Internship [2013 HDRip Лизензия] [UNRATED] francuz Скачать
1 | 0
Фильмы 2013 [DVDrip, WEB-DLRip, HDrip] [ 746 MB ] Кадры / The Internship [2013 BDRip-AVC] [Расширенная версия / Unrated Cut] Dub () + Sub sokol_ok Скачать
2 | 0
Фильмы 2013 [DVDrip, WEB-DLRip, HDrip] [ 1.45 GB ] Кадры / The Internship [2013 BDRip-AVC] [Расширенная версия / Unrated Cut] Dub () + Sub sokol_ok Скачать
2 | 0

28-11-2019 20:33  

Отключить всю рекламу на сайте

15-10-2013 01:18 Кадры Скачать торрент  

Отличный фильм!pb.wtf



    Дорогой пользователь! Огромная просьба, поблагодарите релизера, оцените раздачу и оставьте свои комментарий, если Вы скачали Кадры через торрент бесплатно! Внесите свою лепту в развитие PiratBit!
    Комментировать посты могут только пользователи прошедшие не сложную регистрацию
    Показать сообщения:    

    Кадры через торрент
    Скачать бесплатно Кадры
    Кадры скачать торрент
    Кадры смотреть онлайн
    Cкачать фильм Кадры бесплатно
    Кадры скачать торрент в хорошем качестве
    Кадры смотреть онлайн бесплатно в хорошем качестве


    Вы не можете начинать темы
    Вы не можете отвечать на сообщения
    Вы не можете редактировать свои сообщения
    Вы не можете удалять свои сообщения
    Вы не можете голосовать в опросах
    Вы не можете прикреплять файлы к сообщениям
    Вы можете скачивать файлы