Ссылка на приватное зеркало нашего сайта всего за 1$. Внимание количество ограничено!!!

2 сезон

iTunes

1 сезон

1

2 сезон

2 сезон

iTunes

1 сезон

RePack

30

Ultimate

ВАЖНО

ИГРА 18+

pack

RePack

MK11
pack

Забери бонус

RePack

jed

!!Акция!!

Alien_Rage

RePack

fifa19

RePack

Assassins Creed: Odyssey

RePack

NEED FOR SPEED™ PAYBACK

4 сезон

9 сезон

Бесстыжие 9 сезон

Все сериалы

все сериалы на PB.wtf

RePack

FAR CRY 5
  

Штурм Белого дома / White House Down (Роланд Эммерих) [2013 г., Боевик, Триллер, BDRip 1080p, Дубляж, Лицензия] (Crop) pb.wtf

Штурм Белого дома через торрент pb.wtf

Размер: 7.97 GB | Добавлен: 7 лет 1 мес. назад | Торрент скачан:272 раза
Скачать  

24-10-2013 19:09 Штурм Белого дома Скачать торрент  

Штурм Белого дома / White House Down
Год выпуска: 2013
Страна: США
Жанр: Боевик, Триллер,
Продолжительность: 02:11:33
Перевод: Дубляж, Лицензия
Субтитры: Русские, Английские.

Режиссер: Роланд Эммерих
Продюссер: Роланд Эммерих, Лаэта Калогридис, Харальд Клозер,
Сценарий: Джеймс Вандербилт

Бюджет: $150 000 000
Премьера в мире: 26 июня 2013



В ролях: Ченнинг Татум, Джейми Фокс, Мэгги Джилленхол, Джейсон Кларк, Ричард Дженкинс, Джеймс Вудс, Джои Кинг, Николас Райт, Джимми Симпсон, Майкл Мерфи
Роли дублировали: Сергей Бурунов, Леонид Белозорович, Лиза Мартиросова, Михаил Тихонов, Александр Груздев,

Описание: Cотрудник госбезопасности приходит вместе с дочерью в Белый дом на собеседование на должность в структуру охраны президента. И именно в этот день Белый дом атакуют некие неопознанные вооружённые силы. Офицер проявляет чудеса находчивости и отваги, пытаясь спасти жизнь своему ребёнку, себе и президенту США.


Доп. информация: Внимание: (CROP) Справа и слева видеоряд обрезан, что дает возможность просмотра на полный экран (без черных полос) на телевизорах с соотношением сторон 16:9 без изменения пропорций.

Качество: BDRip 1080p
Формат: MKV
Видео кодек: H.264
Аудио кодек: AC3
Видео: x264, 1920 x 1080 (16:9); 23.976 fps; 7519 kbps; 0.151 bit/pixel
Аудио#1: Russian AC3 Dolby Digital; 384 Kbps; 6 channels; 48 KHz (BD EUR)
Аудио#2: Ukrainian AC3 Dolby Digital; 384 Kbps; 6 channels; 48 KHz (BD EUR)
Аудио#3: English AC3 Dolby Digital; 384 Kbps; 6 channels; 48 KHz (BD EUR)



скриншот   скриншот   скриншот   скриншот   скриншот  
Общее
Уникальный идентификатор : 249555783396605287043756023491068776792 (0xBBBEB213181AA79A89F8E0E1DB2D5158)
Полное имя : D: White.House.Down.2013.BDRip1080p(Crop).mkv
Формат : Matroska
Версия формата : Version 4 / Version 2
Размер файла : 7,97 Гбайт
Продолжительность : 2 ч. 11 м.
Общий поток : 8673 Кбит/сек
Название фильма : Штурм Белого дома / White House Down (2013) BDRip 1080p (Crop)
Дата кодирования : UTC 2013-10-24 08:39:56
Программа кодирования : mkvmerge v6.2.0 ('Promised Land') built on Apr 28 2013 12:22:01
Библиотека кодирования : libebml v1.3.0 + libmatroska v1.4.0
TITLE : White House Down (2013) by Killbrain

Видео
Идентификатор : 1
Формат : AVC
Формат/Информация : Advanced Video Codec
Профиль формата : Main@L4.0
Параметр CABAC формата : Нет
Параметр ReFrames формата : 4 кадра
Идентификатор кодека : V_MPEG4/ISO/AVC
Продолжительность : 2 ч. 11 м.
Битрейт : 7519 Кбит/сек
Ширина : 1920 пикселей
Высота : 1080 пикселей
Соотношение сторон : 16:9
Режим частоты кадров : Постоянный
Частота кадров : 23,976 кадра/сек
Цветовое пространство : YUV
Субдискретизация насыщенности : 4:2:0
Битовая глубина : 8 бит
Тип развёртки : Прогрессивная
Бит/(Пиксели*Кадры) : 0.151
Размер потока : 6,75 Гбайт (85%)
Заголовок : White House Down (2013) BDRip 1080p (Crop).mkv
Библиотека кодирования : x264 core 130 r2273 b3065e6
Настройки программы : cabac=0 / ref=4 / deblock=0:0:0 / analyse=0:0 / me=dia / subme=0 / psy=1 / psy_rd=1.00:0.00 / mixed_ref=0 / me_range=16 / chroma_me=1 / trellis=0 / 8x8dct=0 / cqm=0 / deadzone=21,11 / fast_pskip=1 / chroma_qp_offset=0 / threads=1 / lookahead_threads=1 / sliced_threads=0 / nr=0 / decimate=1 / interlaced=0 / bluray_compat=0 / constrained_intra=0 / bframes=4 / b_pyramid=2 / b_adapt=0 / b_bias=0 / direct=1 / weightb=0 / open_gop=0 / weightp=0 / keyint=240 / keyint_min=24 / scenecut=0 / intra_refresh=0 / rc=abr / mbtree=0 / bitrate=7519 / ratetol=1.0 / qcomp=0.60 / qpmin=0 / qpmax=69 / qpstep=4 / ip_ratio=1.40 / pb_ratio=1.30 / aq=0
Язык : English
Default : Да
Forced : Нет
Основные цвета : BT.709
Характеристики трансфера : BT.709
Коэффициенты матрицы : BT.709

Аудио #1
Идентификатор : 2
Формат : AC-3
Формат/Информация : Audio Coding 3
Расширение режима : CM (complete main)
Параметр Endianness формата : Big
Идентификатор кодека : A_AC3
Продолжительность : 2 ч. 11 м.
Вид битрейта : Постоянный
Битрейт : 384 Кбит/сек
Каналы : 6 каналов
Расположение каналов : Front: L C R, Side: L R, LFE
Частота : 48,0 КГц
Битовая глубина : 16 бит
Метод сжатия : С потерями
Размер потока : 361 Мбайт (4%)
Заголовок : Dub (BD EUR)
Язык : Russian
Default : Да
Forced : Нет

Аудио #2
Идентификатор : 3
Формат : AC-3
Формат/Информация : Audio Coding 3
Расширение режима : CM (complete main)
Параметр Endianness формата : Big
Идентификатор кодека : A_AC3
Продолжительность : 2 ч. 11 м.
Вид битрейта : Постоянный
Битрейт : 384 Кбит/сек
Каналы : 6 каналов
Расположение каналов : Front: L C R, Side: L R, LFE
Частота : 48,0 КГц
Битовая глубина : 16 бит
Метод сжатия : С потерями
Размер потока : 361 Мбайт (4%)
Заголовок : Dub (BD EUR)
Язык : Ukrainian
Default : Нет
Forced : Нет

Аудио #3
Идентификатор : 4
Формат : AC-3
Формат/Информация : Audio Coding 3
Расширение режима : CM (complete main)
Параметр Endianness формата : Big
Идентификатор кодека : A_AC3
Продолжительность : 2 ч. 11 м.
Вид битрейта : Постоянный
Битрейт : 384 Кбит/сек
Каналы : 6 каналов
Расположение каналов : Front: L C R, Side: L R, LFE
Частота : 48,0 КГц
Битовая глубина : 16 бит
Метод сжатия : С потерями
Размер потока : 361 Мбайт (4%)
Заголовок : Dub (BD EUR)
Язык : English
Default : Нет
Forced : Нет

Текст #1
Идентификатор : 5
Формат : UTF-8
Идентификатор кодека : S_TEXT/UTF8
Идентификатор кодека/Информация : UTF-8 Plain Text
Заголовок : Full, BD EUR
Язык : Russian
Default : Нет
Forced : Нет

Текст #2
Идентификатор : 6
Формат : UTF-8
Идентификатор кодека : S_TEXT/UTF8
Идентификатор кодека/Информация : UTF-8 Plain Text
Заголовок : Full, BD EUR
Язык : English
Default : Нет
Forced : Нет

Меню
00:00:00.000 : en:Chapter 1
00:06:40.024 : en:Chapter 2
00:15:18.834 : en:Chapter 3
00:21:38.005 : en:Chapter 4
00:30:10.809 : en:Chapter 5
00:37:47.473 : en:Chapter 6
00:45:51.206 : en:Chapter 7
00:51:12.360 : en:Chapter 8
00:59:55.341 : en:Chapter 9
01:07:09.025 : en:Chapter 10
01:14:43.061 : en:Chapter 11
01:24:13.798 : en:Chapter 12
01:37:27.716 : en:Chapter 14
01:44:36.561 : en:Chapter 15
01:54:17.851 : en:Chapter 16

pb.wtf



Скачать Штурм Белого дома через торрент http://pic.kartinco.top/images/4/zlgj1.jpg Скачать фильм Штурм Белого дома через торрент бесплантно в хорошем качестве Описание: Cотрудник госбезопасности приходит вместе с дочерью в Белый дом на собеседование на должность в структуру охраны президента. И ... 9.8 10 9
Info! Золотая раздача, скачанное не засчитывается.
Торрент: Зарегистрирован [2013-10-24 19:10] · скачан: 272 раз
Статус: √ проверено
Размер: 7.97 GB
Как cкачать? Как скачать Штурм Белого дома через торрент | qTorrent

% Раздел Тема Автор DL S | L
Фильмы (BDRip, HDrip-AVC) (48-60 fps) [ 3.95 GB ] Штурм Белого дома / White House Down [2013 BDRip-AVC 60fps Dub] от R.G. HD-Films Tiberiumsun69 Скачать
2 | 0
Фильмы 2013 [DVDrip, WEB-DLRip, HDrip] [ 749 MB ] Штурм Белого дома / White House Down [2013 BDRip-AVC] Dub sokol_ok Скачать
2 | 0
Фильмы 2013 [DVDrip, WEB-DLRip, HDrip] [ 1.46 GB ] Штурм Белого дома / White House Down [ 2013 BDRip ] Ворон Скачать
1 | 0
Фильмы 2013 [DVDrip, WEB-DLRip, HDrip] [ 2.05 GB ] Штурм Белого дома / White House Down [2013 HDRip DUB ] лисяра Скачать
1 | 0
Фильмы 2013 [DVDrip, WEB-DLRip, HDrip] [ 2.91 GB ] Штурм Белого дома / White House Down [2013 BDRip-AVC ] potroks Скачать
1 | 0
Фильмы [HD 720p, 1080p] (Хороший звук DUB, MVO) [ 13.4 GB ] Штурм Белого дома / White House Down [2013 BDRip 1080p DUB ] лисяра Скачать
1 | 0
Фильмы [HD 720p, 1080p] (Хороший звук DUB, MVO) [ 7.43 GB ] Штурм Белого дома / White House Down [ 2013 BDRip 720p ] МАКС1 Скачать
1 | 0

28-11-2019 20:33  

Отключить всю рекламу на сайте

    Дорогой пользователь! Огромная просьба, поблагодарите релизера, оцените раздачу и оставьте свои комментарий, если Вы скачали Штурм Белого дома через торрент бесплатно! Внесите свою лепту в развитие PiratBit!
    Комментировать посты могут только пользователи прошедшие не сложную регистрацию
    Показать сообщения:    

    Штурм Белого дома через торрент
    Скачать бесплатно Штурм Белого дома
    Штурм Белого дома скачать торрент
    Штурм Белого дома смотреть онлайн
    Cкачать фильм Штурм Белого дома бесплатно
    Штурм Белого дома скачать торрент в хорошем качестве
    Штурм Белого дома смотреть онлайн бесплатно в хорошем качестве


    Вы не можете начинать темы
    Вы не можете отвечать на сообщения
    Вы не можете редактировать свои сообщения
    Вы не можете удалять свои сообщения
    Вы не можете голосовать в опросах
    Вы не можете прикреплять файлы к сообщениям
    Вы можете скачивать файлы