Всегда рабочее зеркало без VPN и Proxy просто перед .vidak.icu напиши любое слово или цифру, Пример http://in9c.vidak.icu

MVO

Лицензия

1 сезон

1

1 сезон

iTunes

1 сезон

13

1 сезон

Deluxe

pack

Рекомендуем

Пиратка

30

ВАЖНО

RePack

MK11

RePack

jed

RePack

fifa19

RePack

RDR2

RePack

NEED FOR SPEED™ PAYBACK

Кинопоиск HD

6 сезон

 Острые козырьки 6 сезон

Все сериалы

все сериалы на PB.wtf

RePack

FAR CRY 5

Anonymous, нам критически не хватает 2100 руб. на оплату серверов и переферии за МАЙ, помоги нам пожалуйста, вся надежда только на тебя. В благодарность мы отключим тебе всю рекламу на сайте!

×
  
Magnet ссылка

Психоз / Psychosis (Рег Тревисс) [2009 г., Ужасы, триллер, криминал, детектив, DVDRip, Профессиональный многоголосый, Лицензия] pb.wtf

Психоз через торрент pb.wtf

Размер: 1.46 GB | Добавлен: 8 лет 8 мес. назад | Торрент скачан:226 раз
Смотреть онлайн Психоз | Скачать    Ребята, помогите собрать деньги на оплату серверов!!!

28-10-2013 08:24 Психоз Скачать торрент  

Психоз / Psychosis
Год выпуска: 2009
Страна: Великобритания
Жанр: Ужасы, триллер, криминал, детектив,
Продолжительность: 01:29:24
Перевод: Профессиональный многоголосый, Лицензия

Режиссер: Рег Тревисс
Продюссер: Патрик Фишер, Мик Берри, Ричард Делахай, ...
Сценарий: Рег Тревисс, Майкл Армстронг

Бюджет: $1 200 000
Премьера в мире: 13 июля 2010

рейтинг R лицам до 17 лет обязательно присутствие взрослого

В ролях: Харизма Карпентер, Пол Скалфор, Риччи Харнетт, Джастин Хоукинс, Ти Глейсер, Бернард Кэй, Шон Чэпман, Катрина Рошелль, Томас Гуган,

Описание: Зимой 1992 года группа молодых анархистов не побоялась ехать через незнакомую местность и, бросив ей вызов, разбила здесь лагерь. В первую же ночь все они пали жертвами психопата.
15 лет спустя, известная писательница в жанре криминала Сьюзен, очень тонкая натура, вместе с мужем переезжает из ее родной Калифорнии на его родину Англию в поисках покоя. Свою идиллию они находят в уединенном загородном доме. Но дом хранит страшную тайну прошлого, и вскоре Сьюзен придется столкнуться со своим самым страшным кошмаром…

Качество: DVDRip
Формат: AVI
Видео кодек: XviD
Аудио кодек: AC3
Видео: 720x400 (1.80:1), 25 fps, XviD build 50 ~1554 kbps avg, 0.22 bit/pixel
Аудио#1: Russian: 48 kHz, AC3 Dolby Digital, 3/2 (L,C,R,l,r) + LFE ch, ~384 kbps
Аудио#2: English: 48 kHz, AC3 Dolby Digital, 3/2 (L,C,R,l,r) + LFE ch, ~384 kbps


Общее
Полное имя : F:ЗакачкиPsixoz.2010.DVDRip.avi
Формат : AVI
Формат/Информация : Audio Video Interleave
Размер файла : 1,46 Гбайт
Продолжительность : 1 ч. 29 м.
Общий поток : 2338 Кбит/сек
Программа кодирования : VirtualDubModRus 1.5.10.2 (build 2542/release)
Библиотека кодирования : VirtualDubMod build 2542/release

Видео
Идентификатор : 0
Формат : MPEG-4 Visual
Профиль формата : Advanced Simple@L5
Параметр BVOP формата : 2
Параметр QPel формата : Нет
Параметр GMC формата : Без точки перехода
Параметр матрицы формата : Default (H.263)
Идентификатор кодека : XVID
Идентификатор кодека/Подсказка : XviD
Продолжительность : 1 ч. 29 м.
Битрейт : 1555 Кбит/сек
Ширина : 720 пикселей
Высота : 400 пикселей
Соотношение сторон : 16:9
Частота кадров : 25,000 кадров/сек
Цветовое пространство : YUV
Субдискретизация насыщенности : 4:2:0
Битовая глубина : 8 бит
Тип развёртки : Прогрессивная
Метод сжатия : С потерями
Бит/(Пиксели*Кадры) : 0.216
Размер потока : 994 Мбайт (67%)
Библиотека кодирования : XviD 1.2.1 (UTC 2008-12-04)

Аудио #1
Идентификатор : 1
Формат : AC-3
Формат/Информация : Audio Coding 3
Расширение режима : CM (complete main)
Параметр Endianness формата : Big
Идентификатор кодека : 2000
Продолжительность : 1 ч. 29 м.
Вид битрейта : Постоянный
Битрейт : 384 Кбит/сек
Каналы : 6 каналов
Расположение каналов : Front: L C R, Side: L R, LFE
Частота : 48,0 КГц
Битовая глубина : 16 бит
Метод сжатия : С потерями
Размер потока : 246 Мбайт (16%)
Выравнивание : Разделение по промежуткам
Продолжительность промежутка : 40 мс. (1,00 видеокадр)
Время предзагрузки промежутка : 500 мс.

Аудио #2
Идентификатор : 2
Формат : AC-3
Формат/Информация : Audio Coding 3
Расширение режима : CM (complete main)
Параметр Endianness формата : Big
Идентификатор кодека : 2000
Продолжительность : 1 ч. 29 м.
Вид битрейта : Постоянный
Битрейт : 384 Кбит/сек
Каналы : 6 каналов
Расположение каналов : Front: L C R, Side: L R, LFE
Частота : 48,0 КГц
Битовая глубина : 16 бит
Метод сжатия : С потерями
Размер потока : 246 Мбайт (16%)
Выравнивание : Разделение по промежуткам
Продолжительность промежутка : 40 мс. (1,00 видеокадр)
Время предзагрузки промежутка : 500 мс


Психоз скачать торрент


pb.wtf



Скачать Психоз через торрент http://s7.uploads.ru/Pyk1S.jpg Скачать, смотреть онлайн Психоз бесплантно в хорошем качестве Описание: Зимой 1992 года группа молодых анархистов не побоялась ехать через незнакомую местность и, бросив ей вызов, разбила здесь лагерь. ... 10 10 10
Info! Золотая раздача, скачанное не засчитывается.
Торрент: Зарегистрирован [2013-10-28 08:24] · скачан: 226 раз
Статус: √ проверено
Размер: 1.46 GB
Как cкачать? Как скачать Психоз через торрент | UTorrent

% Раздел Тема Автор DL S | L
T Фильмы (мультфильмы) cо спонсором показа (Новинки AVI/MKV) [ 2.69 GB ] Инопланетный психоз / Alien Psychosis [2018 WEB-DL 720p] MVO ["Синема УС"] bober100 Скачать
1 | 0
T Фильмы (мультфильмы) cо спонсором показа (Новинки AVI/MKV) [ 1.37 GB ] Инопланетный психоз / Alien Psychosis [2018 WEB-DLRip] MVO ["Синема УС"] bober100 Скачать
1 | 0
Фильмы (DVD фильмы) [ 4.27 GB ] Психоз / Psychosis [2010 DVD5] R5 «West Video» voovaz Скачать
1 | 0
Фильмы 2010 [ 1.38 GB ] Психоз / Psychosis [2009 DVDRip лицензия] coc900 Скачать
1 | 0

28-11-2019 20:33  

Отключить всю рекламу на сайте

29-10-2013 05:21 Психоз Скачать торрент  

Фильм - УГ. Большего бреда не видел.pb.wtf



    Дорогой пользователь! Огромная просьба, поблагодарите релизера, оцените раздачу и оставьте свои комментарий, если Вы скачали Психоз через торрент бесплатно!
    Комментировать посты могут только пользователи прошедшие не сложную регистрацию
    Показать сообщения:    

    Психоз через торрент
    Скачать бесплатно Психоз
    Психоз скачать торрент
    Психоз смотреть онлайн
    Cкачать фильм Психоз бесплатно
    Психоз скачать торрент в хорошем качестве
    Психоз смотреть онлайн бесплатно в хорошем качестве


    Вы не можете начинать темы
    Вы не можете отвечать на сообщения
    Вы не можете редактировать свои сообщения
    Вы не можете удалять свои сообщения
    Вы не можете голосовать в опросах
    Вы не можете прикреплять файлы к сообщениям
    Вы можете скачивать файлы