Всегда рабочее зеркало без VPN и Proxy просто перед .vidak.icu напиши любое слово или цифру, Пример http://49cm.vidak.icu

MVO

2 сезон

2 сезон

1

1 сезон

iTunes

2 сезон

13

1 сезон

Deluxe

pack

Рекомендуем

Пиратка

30

ВАЖНО

RePack

MK11

RePack

jed

RePack

fifa19

RePack

RDR2

RePack

NEED FOR SPEED™ PAYBACK

Кинопоиск HD

6 сезон

 Острые козырьки 6 сезон

Все сериалы

все сериалы на PB.wtf

RePack

FAR CRY 5

Anonymous, нам критически не хватает 5601 руб. на оплату серверов и переферии за Апрель, помоги нам пожалуйста, вся надежда только на тебя. В благодарность мы отключим тебе всю рекламу на сайте!

×
  
Magnet ссылка

Прошлое / Le passé (Асгар Фархади / Asghar Farhadi) [ 2013 , Франция, Италия , драма, детектив , HDRip ]Авторский (Алексеев Антон) pb.wtf

Прошлое через торрент pb.wtf

Размер: 1.45 GB | Добавлен: 8 лет 6 мес. назад | Торрент скачан:245 раз
Смотреть онлайн Прошлое | Скачать    Ребята, помогите собрать деньги на оплату серверов!!!

08-11-2013 08:38 Прошлое Скачать торрент  

Прошлое / Le passé
Год выпуска: 2013
Страна: Франция, Италия
Жанр: драма, детектив
Продолжительность: 02:10:22
Перевод: Авторский (Алексеев Антон)
Субтитры: Нет

Режиссер: Асгар Фархади / Asghar Farhadi
Сценарий: Асгар Фархади / Asghar Farhadi, Массумех Лахиджи / Massoumeh Lahidji
Продюсер: Александр Малле-Гай / Alexandre Mallet-Guy, Алекса Риверо / Alexa Rivero
Оператор: Махмуд Калари / Mahmoud Kalari
Композитор: Евгений Гальперин / Evgueni Galperine, Йули Гальперин / Youli Galperine

Беренис Бежо (Marie Brisson), Тахар Рахим (Samir), Али Мосаффа (Ahmad), Полин Бурле (Lucie), Элиэ Аги (Fouad), Джинн Джестин (LГ©a), Сабрина Уазани (NaГЇma), Бабак Карими (Shahryar), Валерия Кавалли (Valeria), Александра Клебанска (CГ©line), Жан-Мишель Симонет (MГ©decin), Pierre Guerder (Juge)

Мировая премьера: 17 мая 2013
Релиз на DVD: 1 апреля 2014,«Columbia/Sony»,

Описание:Ахмад и его французская жена четыре года живут врозь. По просьбе Мари герой приезжает в Париж из Тегерана, чтобы уладить формальности, связанные с их разводом. Во время своего короткого визита Ахмад наблюдает постоянные ссоры жены и их дочери Люси. Его попытка уладить их отношения открывает секрет из прошлого...

Рейтинг
kinopoisk.ru: 7.405 (57)
imdb.com: 7.90 (8474)
MPAA: PG-13 - Детям до 13 лет просмотр не желателен

Качество: HDRip
Формат: AVI
Видео кодек: XviD
Аудио кодек: AC3
Видео: XviD, 720x384 (1.875), 1141 kbps, 23,976 fps, 0,172 bpp
Аудио: русский, AC3 / 5.1 / 48 kHz / 448 kbps / 16 bit

Общее
Кол-во : 279
Кол-во потоков такого типа : 1
Тип потока : General
Тип потока : Общее
Идентификатор типа потока : 0
Inform : AVI: 1,45 Гбайт, 2 ч. 10 м.
Кол-во видеопотоков : 1
Кол-во аудиопотоков : 1
Video_Format_List : MPEG-4 Visual
Video_Format_WithHint_List : MPEG-4 Visual (XviD)
Видеокодеки : XviD
Audio_Format_List : AC-3
Audio_Format_WithHint_List : AC-3
Аудиокодеки : AC3
Полное имя : D:ФильмыПрошлое.avi
Имя папки : D:Фильмы
Имя файла : Прошлое
Расширение : avi
Формат : AVI
Формат : AVI
Формат/Информация : Audio Video Interleave
Формат/Используется в : avi
Коммерческое название : AVI
Интернет-тип носителя : video/vnd.avi
Чередующаяся : Yes
Кодек : AVI
Кодек : AVI
Кодек/Информация : Audio Video Interleave
Кодек/Используется в : avi
Размер файла : 1560698880
Размер файла : 1,45 Гбайт
Размер файла : 1 Гбайт
Размер файла : 1,5 Гбайт
Размер файла : 1,45 Гбайт
Размер файла : 1,454 Гбайт
Продолжительность : 7822815
Продолжительность : 2 ч. 10 м.
Продолжительность : 2 ч. 10 м. 22 с. 815 мс.
Продолжительность : 2 ч. 10 м.
Продолжительность : 02:10:22.815
Общий поток : 1596048
Общий поток : 1596 Кбит/сек
Размер потока : 9140106
Размер потока : 8,72 Мбайт (1%)
Размер потока : 9 Мбайт
Размер потока : 8,7 Мбайт
Размер потока : 8,72 Мбайт
Размер потока : 8,717 Мбайт
Размер потока : 8,72 Мбайт (1%)
Пропорции потока : 0.00586
Дата файла : UTC 2013-11-08 05:43:44.950
Дата файла (местная) : 2013-11-08 12:43:44.950
Дата изменения файла : UTC 2013-11-08 08:01:53.818
Дата изменения файла (местная) : 2013-11-08 15:01:53.818
Программа кодирования : VirtualDubMod 1.5.10.3 | www.virtualdub-fr.org || (build 2550/release)
Библиотека кодирования : VirtualDubMod build 2550/release
Библиотека кодирования : VirtualDubMod build 2550/release

Видео
Кол-во : 248
Кол-во потоков такого типа : 1
Тип потока : Video
Тип потока : Видео
Идентификатор типа потока : 0
Inform : 1142 Кбит/сек, 720*384 (1,85:1), в 23,976 кадра/сек, MPEG-4 Visual (XviD) (Advanced Simple@L5) (BVOP1 / Custom Matrix)
Идентификатор : 0
Идентификатор : 0
Формат : MPEG-4 Visual
Коммерческое название : MPEG-4 Visual
Профиль формата : Advanced Simple@L5
Настройки формата : BVOP1 / Custom Matrix
Параметр BVOP формата : 1
Параметр BVOP формата : 1
Параметр QPel формата : No
Параметр QPel формата : Нет
Параметр GMC формата : 0
Параметр GMC формата : Без точки перехода
Параметр матрицы формата : Custom
Параметр матрицы формата : Выборочная
Format_Settings_Matrix_Data : 080A0A0A0A0A0A0A0A0A0B0A0B0A0B0B0B0B0B0B0B0D0C0D0D0D0C0D0F0E0E0F0F0E0E0F10101113111010121316161312171A1C1A171D22221D292C29373748 / 0F0F0F0F0F0F0F0F0F0F100F100F101110111110111312131313121316141416161414161717191C1917171B1D20201D1B21262926212B32322B3C423C51516A
Интернет-тип носителя : video/MP4V-ES
Идентификатор кодека : XVID
Идентификатор кодека/Подсказка : XviD
Идентификатор кодека/Ссылка : http://mediaarea.net/XVID
Кодек : XVID
Кодек : XviD
Кодек/Семейство : MPEG-4V
Кодек/Информация : XviD project
Кодек/Ссылка : http://www.xvid.org/Downloads.15.0.html
Кодек/CC : XVID
Профиль кодека : Advanced Simple@L5
Настройки кодека : BVOP / Custom Matrix
Параметр пакетного потока данных кодека : No
Параметр BVOP кодека : Yes
Параметр QPel кодека : No
Параметр GMC кодека : 0
Параметр GMC кодека : Без точки перехода
Параметр матрицы кодека : Custom
Продолжительность : 7822815
Продолжительность : 2 ч. 10 м.
Продолжительность : 2 ч. 10 м. 22 с. 815 мс.
Продолжительность : 2 ч. 10 м.
Продолжительность : 02:10:22.815
Битрейт : 1141779
Битрейт : 1142 Кбит/сек
Ширина : 720
Ширина : 720 пикселей
Высота : 384
Высота : 384 пикселя
Пропорции пикселя : 1.000
Соотношение сторон : 1.875
Соотношение сторон : 1,85:1
Частота кадров : 23.976
Частота кадров : 23,976 кадра/сек
Счётчик кадров : 187560
Разрешение : 8
Разрешение : 8 бит
Колориметрия : 4:2:0
Цветовое пространство : YUV
Субдискретизация насыщенности : 4:2:0
Битовая глубина : 8
Битовая глубина : 8 бит
Тип развёртки : Progressive
Тип развёртки : Прогрессивная
Переплетение : PPF
Переплетение : Прогрессивная
Метод сжатия : Lossy
Метод сжатия : С потерями
Бит/(Пиксели*Кадры) : 0.172
Задержка : 0
Задержка : 00:00:00.000
Размер потока : 1116491638
Размер потока : 1,04 Гбайт (72%)
Размер потока : 1 Гбайт
Размер потока : 1,0 Гбайт
Размер потока : 1,04 Гбайт
Размер потока : 1,040 Гбайт
Размер потока : 1,04 Гбайт (72%)
Пропорции потока : 0.71538
Библиотека кодирования : XviD0050
Библиотека кодирования : XviD 1.2.1 (UTC 2008-12-04)
Библиотека кодирования/Имя : XviD
Библиотека кодирования/Version : 1.2.1
Библиотека кодирования/Дата : UTC 2008-12-04

Аудио
Кол-во : 227
Кол-во потоков такого типа : 1
Тип потока : Audio
Тип потока : Аудио
Идентификатор типа потока : 0
Inform : 448 Кбит/сек, 48,0 КГц, 16 бит, 6 каналов, AC-3
Идентификатор : 1
Идентификатор : 1
Формат : AC-3
Формат/Информация : Audio Coding 3
Коммерческое название : AC-3
Расширение режима : CM (complete main)
Параметр Endianness формата : Big
Идентификатор кодека : 2000
Кодек : AC3
Кодек : AC3
Кодек/Семейство : AC3
Кодек/Информация : Dolby AC3
Кодек/CC : 2000
Продолжительность : 7769056
Продолжительность : 2 ч. 9 м.
Продолжительность : 2 ч. 9 м. 29 с. 56 мс.
Продолжительность : 2 ч. 9 м.
Продолжительность : 02:09:29.056
Вид битрейта : CBR
Вид битрейта : Постоянный
Битрейт : 448000
Битрейт : 448 Кбит/сек
Каналы : 6
Каналы : 6 каналов
Расположение каналов : Front: L C R, Side: L R, LFE
Расположение каналов : 3/2/0.1
Частота : 48000
Частота : 48,0 КГц
Количество образцов : 372914688
Разрешение : 16
Разрешение : 16 бит
Битовая глубина : 16
Битовая глубина : 16 бит
Метод сжатия : Lossy
Метод сжатия : С потерями
Задержка : 0
Задержка : 00:00:00.000
Задержка в оригинале : Stream
Задержка в оригинале : 'Сырой' поток
Задержка видео : 0
Задержка видео : 0
Размер потока : 435067136
Размер потока : 415 Мбайт (28%)
Размер потока : 415 Мбайт
Размер потока : 415 Мбайт
Размер потока : 415 Мбайт
Размер потока : 414,9 Мбайт
Размер потока : 415 Мбайт (28%)
Пропорции потока : 0.27876
Выравнивание : Split
Выравнивание : Разделение по промежуткам
Продолжительность промежутка : 1.01
Продолжительность промежутка : 42
Продолжительность промежутка : 42 мс. (1,01 видеокадр)
Время предзагрузки промежутка : 500
Время предзагрузки промежутка : 500 мс.
dialnorm : -31
dialnorm/String : -31 dB
bsid : 8
dialnorm_Average : -31
dialnorm_Average/String : -31 dB
dialnorm_Minimum : -31
dialnorm_Minimum/String : -31 dB
dialnorm_Maximum : -31
dialnorm_Maximum/String : -31 dB
dialnorm_Count : 405





pb.wtf



Скачать Прошлое через торрент http://s003.radikal.ru/i201/1311/af/515b6ab35b4a.jpg Скачать, смотреть онлайн Прошлое бесплантно в хорошем качестве Описание:Ахмад и его французская жена четыре года живут врозь. По просьбе Мари герой приезжает в Париж из Тегерана, чтобы уладить ... 10 10 4
Info! Золотая раздача, скачанное не засчитывается.
Торрент: Зарегистрирован [2013-11-08 08:38] · скачан: 245 раз
Статус: √ проверено
Размер: 1.45 GB
Как cкачать? Как скачать Прошлое через торрент | UTorrent

% Раздел Тема Автор DL S | L
Порно фильмы с сюжетом [ 848 MB ] Туман над прошлым / La Nebbia del passato [1996 Feature Couples Vignettes PornStars All Sex Anal Oral DP DVDRip Оригинал] sheker187 Скачать
1 | 0
Фильмы [HD 720p, 1080p] (Хороший звук DUB, MVO) [ 16.07 GB ] Секреты прошлого / Le passé [2012 BDRip 1080p] MVO AVO msltel Скачать
1 | 0
Фильмы (DVD фильмы) [ 7.14 GB ] Секреты прошлого / Le passé / Le passe / The Past [2013 DVD9] R5 voovaz Скачать
1 | 0
Фильмы с авторской озвучкой [ 2.19 GB ] Секреты прошлого / Le passé [2013 HDRip Авторский одноголосый ] coc900 Скачать
1 | 0
Фильмы 2013 [DVDrip, WEB-DLRip, HDrip] [ 2.22 GB ] Прошлое / Le passé / The Past [2013 BDRip-AVC] MVO potroks Скачать
1 | 0
Арт-хаус и авторское кино [ 1.4 GB ] Секреты прошлого / Le passé [2013 Италия HDRip Многоголосый закадровый [] Ворон Скачать
1 | 0
Порно фильмы с сюжетом [ 1.25 GB ] Ночи Риты / Побег из прошлого / Les Nuits de Rita / Escape from the Past / Fuga dal passato or Francesco Fanelli / ATV .) [2004 Feature European Fantasy & Supernatural Anal. DVDRip Оригинал Pir@tya2010 Скачать
1 | 0

28-11-2019 20:33  

Отключить всю рекламу на сайте

    Дорогой пользователь! Огромная просьба, поблагодарите релизера, оцените раздачу и оставьте свои комментарий, если Вы скачали Прошлое через торрент бесплатно!
    Комментировать посты могут только пользователи прошедшие не сложную регистрацию
    Показать сообщения:    

    Прошлое через торрент
    Скачать бесплатно Прошлое
    Прошлое скачать торрент
    Прошлое смотреть онлайн
    Cкачать фильм Прошлое бесплатно
    Прошлое скачать торрент в хорошем качестве
    Прошлое смотреть онлайн бесплатно в хорошем качестве


    Вы не можете начинать темы
    Вы не можете отвечать на сообщения
    Вы не можете редактировать свои сообщения
    Вы не можете удалять свои сообщения
    Вы не можете голосовать в опросах
    Вы не можете прикреплять файлы к сообщениям
    Вы можете скачивать файлы