Ссылка на приватное зеркало нашего сайта всего за 1$. Внимание количество ограничено!!!

2 сезон

iTunes

1 сезон

1

2 сезон

2 сезон

iTunes

1 сезон

RePack

30

Ultimate

ВАЖНО

ИГРА 18+

pack

RePack

MK11
pack

Забери бонус

RePack

jed

!!Акция!!

Alien_Rage

RePack

fifa19

RePack

Assassins Creed: Odyssey

RePack

NEED FOR SPEED™ PAYBACK

4 сезон

9 сезон

Бесстыжие 9 сезон

Все сериалы

все сериалы на PB.wtf

RePack

FAR CRY 5
  

Аттила / Attila (Эммануэль Итье / Emmanuel Itier) [ 2013 , США , боевик , WEB-DLRip ] VO pb.wtf

Аттила через торрент pb.wtf

Размер: 1.48 GB | Добавлен: 7 лет назад | Торрент скачан:346 раз
Скачать  

25-11-2013 06:20 Аттила Скачать торрент  

Аттила / AttilaГод выпуска: 2013
Страна: США/ Global Asylum
Жанр: боевик
Продолжительность: 01:25:37
Перевод: Любительское (одноголосое) [den904] - перевод на русский язык [kon2011] - работа со звуком [Вадим]
Субтитры: Нет
Режиссер: Эммануэль Итье / Emmanuel Itier
В ролях: Крис Конрад, Люк Барнетт (Alpha 1), Пончо Ходжес, М. Стивен Фелти (Gen Thadeus), Стив Хэнкс (Green), Danny Ligsay (Batel), Mikayla S. Campbell, Филлип Андре Ботельо (Thomas «meat» Anderson), Роксанна Бина (Nicks), Билл Вурис (Dr. Buckingham), Тод Кимси, Andria Kozica (Spencer)
Описание:
Давным-давно вождь гуннов Аттила покинул этот мир. Спустя 1500 лет люди потревожили дух великого завоевателя. Пробудившийся после полторы тысячи лет сна Аттила вновь стал сеять хаос и разрушения. Воскресшему древнему воину пытается противостоять элитный военный отряд...
Рейтинг
Качество: WEB-DLRip
Формат: AVI
Видео кодек: XviD
Аудио кодек: AC3
Видео: XviD, 720x400 (16:9), 1889 kbps, 23,976 fps, 0,260 bpp
Аудио №1: AC3 / 2.0 / 48 kHz / 192 kbps / 16 bit / Russian
Аудио №2: AC3 / 5.1 / 48 kHz / 384 kbps / 16 bit / English

General
Complete name : D:ТорентыAttila.2013.WEB-DLRip.CINEMANIA.avi
Format : AVI
Format/Info : Audio Video Interleave
File size : 1.48 GiB
Duration : 1h 25mn
Overall bit rate : 2 480 Kbps
Writing application : VirtualDubMod 1.5.10.2 (build 2542/release)
Writing library : VirtualDubMod build 2542/release

Video
ID : 0
Format : MPEG-4 Visual
Format profile : Advanced Simple@L5
Format settings, BVOP : 2
Format settings, QPel : No
Format settings, GMC : No warppoints
Format settings, Matrix : Default (H.263)
Muxing mode : Packed bitstream
Codec ID : XVID
Codec ID/Hint : XviD
Duration : 1h 25mn
Bit rate : 1889Kbps
Width : 720 pixels
Height : 400 pixels
Display aspect ratio : 16:9
Frame rate : 23.976 fps
Color space : YUV
Chroma subsampling : 4:2:0
Bit depth : 8 bits
Scan type : Progressive
Compression mode : Lossy
Bits/(Pixel*Frame) : 0.260
Stream size : 1.07 GiB (72%)
Writing library : XviD 1.2.1 (UTC 2008-12-04)

Audio #1
ID : 1
Format : AC-3
Format/Info : Audio Coding 3
Mode extension : CM (complete main)
Codec ID : 2000
Duration : 1h 25mn
Bit rate mode : Constant
Bit rate : 192 Kbps
Channel(s) : 2 channels
Channel positions : Front: L R
Sampling rate : 48.0 KHz
Bit depth : 16 bits
Compression mode : Lossy
Stream size : 118 MiB (8%)
Alignment : Split accross interleaves

Audio #2
ID : 2
Format : AC-3
Format/Info : Audio Coding 3
Mode extension : CM (complete main)
Codec ID : 2000
Duration : 1h 25mn
Bit rate mode : Constant
Bit rate : 384 Kbps
Channel(s) : 6 channels
Channel positions : Front: L C R, Side: L R, LFE
Sampling rate : 48.0 KHz
Bit depth : 16 bits
Compression mode : Lossy
Stream size : 235 MiB (15%)
Alignment : Split accross interleaves
pb.wtf



Скачать Аттила через торрент http://i6.imageban.ru/out/2013/11/25/b42380976a9cb1d8e6cc74a8f58a13b0.jpg Скачать фильм Аттила через торрент бесплантно в хорошем качестве Описание: Давным-давно вождь гуннов Аттила покинул этот мир. Спустя 1500 лет люди потревожили дух великого завоевателя. Пробудившийся после ... 8.7 10 13
Info! Золотая раздача, скачанное не засчитывается.
Торрент: Зарегистрирован [2013-11-25 06:20] · скачан: 346 раз
Статус: T временная
Размер: 1.48 GB
Как cкачать? Как скачать Аттила через торрент | qTorrent



Последний раз редактировалось: Ворон (2013-11-25 17:17), всего редактировалось 1 раз

28-11-2019 20:33  

Отключить всю рекламу на сайте

25-11-2013 07:42 Аттила Скачать торрент  

трэш-машина Global Asylum уже не может остановится на уже созданных своих "шедеврах" pb.wtf



25-11-2013 07:52 Аттила Скачать торрент  

Ахаха жанр боевик а где фантастика ?pb.wtf



25-11-2013 09:07 Аттила Скачать торрент  

Цитата:

Аудио №1: AC3 / 2.0 / 48 kHz / 192 kbps / 16 bit / Russian
Аудио №2: AC3 / 5.1 / 48 kHz / 384 kbps / 16 bit / English

В сэмпле только одна дорожка.

Об исправлении сообщите в лс со ссылкой на раздачу.pb.wtf



25-11-2013 09:22 Аттила Скачать торрент  

Вы посмотрите на Аттилу это ж прям вылитый гунн . Я их именно такими себе и представлялpb.wtf



25-11-2013 15:56 Аттила Скачать торрент  

А почему сразу хаос и разрушение? :) Кто бы снял фильм, как отряд воинов под предводительством Атиллы борется с мировым господством "Страны Шутов и Арлекинов" :).pb.wtf



    Дорогой пользователь! Огромная просьба, поблагодарите релизера, оцените раздачу и оставьте свои комментарий, если Вы скачали Аттила через торрент бесплатно! Внесите свою лепту в развитие PiratBit!
    Комментировать посты могут только пользователи прошедшие не сложную регистрацию
    Показать сообщения:    

    Аттила через торрент
    Скачать бесплатно Аттила
    Аттила скачать торрент
    Аттила смотреть онлайн
    Cкачать фильм Аттила бесплатно
    Аттила скачать торрент в хорошем качестве
    Аттила смотреть онлайн бесплатно в хорошем качестве


    Вы не можете начинать темы
    Вы не можете отвечать на сообщения
    Вы не можете редактировать свои сообщения
    Вы не можете удалять свои сообщения
    Вы не можете голосовать в опросах
    Вы не можете прикреплять файлы к сообщениям
    Вы можете скачивать файлы