Всегда рабочее зеркало без VPN и Proxy просто перед .vidak.icu напиши любое слово или цифру, Пример http://6q8t.vidak.icu

MVO

2 сезон

1 сезон

1

1 сезон

iTunes

2 сезон

13

1 сезон

Распродажа

pack

Рекомендуем

Пиратка

30

ВАЖНО

RePack

MK11

RePack

jed

RePack

fifa19

RePack

RDR2

RePack

NEED FOR SPEED™ PAYBACK

Кинопоиск HD

6 сезон

 Острые козырьки 6 сезон

Все сериалы

все сериалы на PB.wtf

RePack

FAR CRY 5

Anonymous, нам критически не хватает 5601 руб. на оплату серверов и переферии за Апрель, помоги нам пожалуйста, вся надежда только на тебя. В благодарность мы отключим тебе всю рекламу на сайте!

×
  
Magnet ссылка

Двойной КОПец / Cop Out (Кевин Смит / Kevin Smith) [2010, США, боевик, комедия, криминал, BDRip] AVO (Гоблин / VoiceRipHQ) + Subs (Rus / Goblin) pb.wtf

Двойной КОПец через торрент pb.wtf

Размер: 1.34 GB | Добавлен: 8 лет 9 мес. назад | Торрент скачан:398 раз
Смотреть онлайн Двойной КОПец | Скачать    Ребята, помогите собрать деньги на оплату серверов!!!

02-08-2013 22:49 Двойной КОПец Скачать торрент  

Двойной КОПец / Cop Out

«Стоять! Бояться!»

  • Год выпуска:2010
  • Страна:США
  • Жанр:боевик, комедия, криминал
  • Продолжительность: 01:47:30
  • Перевод:Авторский (одноголосый закадровый)Дмитрий «Гоблин»

  • Субтитры: Дмитрий «Гоблин» Пучков / русские
    • Режиссер:Кевин Смит / Kevin Smith

  • В ролях:Брюс Уиллис (Jimmy Monroe), Трэйси Морган (Paul Hodges), Адам Броди (Barry Mangold), Кевин Поллак (Hunsaker), Гильермо Диас (Poh Boy), Шонн Уильям Скотт (Dave), Мишель Трахтенберг (Ava), Джейсон Ли (Roy), Рашида Джонс (Debbie), Кори Фернандез (Juan), Хуан Карлос Эрнандез (Raul), Джейсон Харт (Youth 1)
    • Описание:
      История двух давних напарников - нью-йоркских полицейских, занятых поисками очень редкой и чертовски дорогой бейсбольной карточки, украденной у одного из них. Они вынуждены противостоять беспощадному гангстеру, просто помешанному на коллекционных вещицах.
      Джимми, всю жизнь проработавший в полиции, возлагал на пропавшую карточку все свои надежды, так как только с помощью нее он мог бы оплатить предстоящую свадьбу дочери, а Пол, его так называемый «напарник в борьбе с преступностью», столь зацикливается на предполагаемой неверности своей жены, что ему становится уже непросто отслеживать пропажу.

  • Рейтинг
    kinopoisk.ru: 6.095 (22 083)
    imdb.com: 5.60 (56 549)
    MPAA: R - Лицам до 17 лет обязательно присутствие взрослого
    • Качество:BDRip
    • Формат:AVI
    • Видео кодек: XviD
    • Аудио кодек: AC3
    • Видео: XviD, 720x304 (2.35:1), 1553 kbps, 23,976 fps, 0,296 bpp
    • Аудио: AC3 / 2.0 / 48 kHz / 224 kbps / 16 bit


    General
    Complete name : D:ТорентыCop.Out.2010.AVO.Goblin-BloodymetallCop.Out.2010.AVO.Goblin-Bloodymetall.avi
    Format : AVI
    Format/Info : Audio Video Interleave
    File size : 1.34 GiB
    Duration : 1h 47mn
    Overall bit rate : 1 787 Kbps
    Movie name : Dvojnoj.KOPetz.2010.D.BDRip_S
    Director : smallz
    Writing application : VirtualDubMod 1.5.10.2 (build 2542/release)
    Writing library : VirtualDubMod build 2542/release

    Video
    ID : 0
    Format : MPEG-4 Visual
    Format profile : Advanced Simple@L5
    Format settings, BVOP : 1
    Format settings, QPel : No
    Format settings, GMC : No warppoints
    Format settings, Matrix : Custom
    Codec ID : XVID
    Codec ID/Hint : XviD
    Duration : 1h 47mn
    Bit rate : 1 554 Kbps
    Width : 720 pixels
    Height : 304 pixels
    Display aspect ratio : 2.35:1
    Frame rate : 23.976 fps
    Color space : YUV
    Chroma subsampling : 4:2:0
    Bit depth : 8 bits
    Scan type : Progressive
    Compression mode : Lossy
    Bits/(Pixel*Frame) : 0.296
    Stream size : 1.17 GiB (87%)
    Writing library : XviD 1.2.1 (UTC 2008-12-04)

    Audio
    ID : 1
    Format : AC-3
    Format/Info : Audio Coding 3
    Mode extension : CM (complete main)
    Codec ID : 2000
    Duration : 1h 47mn
    Bit rate mode : Constant
    Bit rate : 224 Kbps
    Channel(s) : 2 channels
    Channel positions : Front: L R
    Sampling rate : 48.0 KHz
    Bit depth : 16 bits
    Compression mode : Lossy
    Stream size : 172 MiB (13%)
    Alignment : Split accross interleaves
    Interleave, duration : 42 ms (1.00 video frame)





    Внимание! Звуковая дорога качества VoiceRipHQ (улучшенная запись со спец.показа). Голос записан в кинотеатре на диктофон, очищен от помех и шумов, вырезан, подогнан и наложен на оригинальную дорожку!
    Релиз исключительно для истинных ценителей переводов Гоблина.
    Других релизов с переводом Гоблина х/ф Двойной КОПец не будет! Данный релиз - единственная возможность с ним ознакомиться!
    Прежде чем качать релиз - внимательно слушаем семпл!
    Ценителям качественного звука КАЧАТЬ СТРОГО НЕ РЕКОММЕНДУЕТСЯ! Если вы скачали не то, что ожидали - это значит вы не изучили описание!

    © Оформление by Vetalpb.wtf



  • Скачать Двойной КОПец через торрент http://i2.imageban.ru/out/2013/08/03/23e36f90beb0ff5a547daef5d77d69e8.jpg Скачать, смотреть онлайн Двойной КОПец бесплантно в хорошем качестве Описание:История двух давних напарников - нью-йоркских полицейских, занятых поисками очень редкой и чертовски дорогой бейсбольной карточки, ... 9.2 10 13
    Info! Золотая раздача, скачанное не засчитывается.
    Торрент: Зарегистрирован [2013-08-02 22:49] · скачан: 398 раз
    Статус: √ проверено
    Размер: 1.34 GB
    Как cкачать? Как скачать Двойной КОПец через торрент | UTorrent

    % Раздел Тема Автор DL S | L
    Фильмы 2010 [ 1.37 GB ] Двойной КОПец / Cop Out [2010 BDRip] VO WOLRONE Ворон Скачать
    1 | 0
    Фильмы 2010 [ 702 MB ] Двойной КОПец / Cop Out [2010 ... HDRip] Venxxx Скачать
    1 | 0
    Фильмы 2010 [ 702 MB ] Двойной КОПец / Cop Out [2010 HDRip]Гоблин azagoth_666 Скачать
    1 | 0
    Фильмы [HD 720p, 1080p] (Хороший звук DUB, MVO) [ 4.36 GB ] Двойной КОПец / Cop Out [2010 ... BDRip] Shmel Скачать
    1 | 0
    Фильмы с авторской озвучкой [ 2 GB ] Двойной КОПец / Cop Out [2010 DVDRip AVO ] IceDevil71 Скачать
    1 | 0
    Фильмы 2010 [ 2.05 GB ] Двойной КОПец / Cop Out [2010 BDRip лицензия] DEVI Скачать
    1 | 0
    Фильмы (DVD фильмы) [ 4.37 GB ] Двойной КОПец / Cop Out [2010 DVD5 лицензия] nickson-82 Скачать
    1 | 0

    28-11-2019 20:33  

    Отключить всю рекламу на сайте

    25-11-2013 14:09 Двойной КОПец Скачать торрент  

    Предупреждения насчет звука не напрасны)pb.wtf



      Дорогой пользователь! Огромная просьба, поблагодарите релизера, оцените раздачу и оставьте свои комментарий, если Вы скачали Двойной КОПец через торрент бесплатно!
      Комментировать посты могут только пользователи прошедшие не сложную регистрацию
      Показать сообщения:    

      Двойной КОПец через торрент
      Скачать бесплатно Двойной КОПец
      Двойной КОПец скачать торрент
      Двойной КОПец смотреть онлайн
      Cкачать фильм Двойной КОПец бесплатно
      Двойной КОПец скачать торрент в хорошем качестве
      Двойной КОПец смотреть онлайн бесплатно в хорошем качестве


      Вы не можете начинать темы
      Вы не можете отвечать на сообщения
      Вы не можете редактировать свои сообщения
      Вы не можете удалять свои сообщения
      Вы не можете голосовать в опросах
      Вы не можете прикреплять файлы к сообщениям
      Вы можете скачивать файлы