Ссылка на приватное зеркало нашего сайта всего за 1$. Внимание количество ограничено!!!

2 сезон

iTunes

1 сезон

1

2 сезон

2 сезон

iTunes

1 сезон

RePack

30

Ultimate

ВАЖНО

ИГРА 18+

pack

RePack

MK11
pack

Забери бонус

RePack

jed

!!Акция!!

Alien_Rage

RePack

fifa19

RePack

Assassins Creed: Odyssey

RePack

NEED FOR SPEED™ PAYBACK

4 сезон

9 сезон

Бесстыжие 9 сезон

Все сериалы

все сериалы на PB.wtf

RePack

FAR CRY 5
  

Элизиум: Рай не на Земле / Elysium (Нил Бломкамп / Neill Blomkamp) [2013, фантастика, боевик, триллер, BDRip 1080p, DUB] [Лицензия] pb.wtf

Элизиум: Рай не на Земле через торрент pb.wtf

Раздают: 1 [ 0 KB/s ]
Размер: 10.23 GB | Добавлен: 7 лет назад | Торрент скачан:1502 раза
Скачать  

26-11-2013 03:01 Элизиум: Рай не на Земле Скачать торрент  

Элизиум: Рай не на Земле / Elysium

Год выпуска : 2013
Страна: США
Жанр: Фантастика, боевик, триллер, драма

Продолжительность: 01:49:35
Перевод: Дубляж [Лицензия]

Субтитры: Русские
Режиссер: Нил Бломкамп / Neill Blomkamp
В ролях: Мэтт Дэймон (Max), Джоди Фостер (Delacourt), Шарлто Копли (Kruger), Алиси Брага (Frey), Диего Луна (Julio), Вагнер Моура (Spider), Уильям Фихтнер (John Carlyle), Брэндон Оре (Drake), Джош Блэкер (Crowe), Эмма Тремблэ (Matilda), Хосе Пабло Кантилльо (Sandro), Максвелл Перри Коттон (Young Max)
Описание: В 2154 году существует два класса людей: очень богатые, живущие на чистой, созданной руками человека, космической станции под названием Элизиум и остальные, живущие на перенаселённой разрушенной Земле. Безжалостный правительственный чиновник, амбициозная министр обороны Делакур, не остановится ни перед чем для применения анти-иммиграционных законов и сохранения роскошного образа жизни граждан Элизиума. Когда неудачника Макса загоняют в угол, он соглашается взять на себя сложную миссию, которая в случае успеха не только спасёт ему жизнь, но и может привести к равенству этих поляризованных миров.
Рейтинг

imdb.com: 6.80 (105 705)
MPAA: R - Лицам до 17 лет обязательно присутствие взрослого
Качество: BDRip 1080p
Формат: MKV
Видео кодек: AVC
Аудио кодек: AC3/DTS
Видео: AVC, 1920x804 (2.40:1), 11143 kbps, 23,976 fps
Аудио №1: русский / AC3 / 5.1 / 48 kHz / 448 kbps / 16 bit
Аудио №2: английский / DTS / 5.1 / 48 kHz / 1510 kbps / 24 bit

General
Unique ID : 214919886863311685785725616507830807204 (0xA1B01088040D90DF84E792B7BB2E2AA4)
Complete name : D:ТОРРЕНТElisium.2013.D.BDRip.1080p.mkv
Format : Matroska
Format version : Version 2
File size : 10.2 GiB
Duration : 1h 49mn
Overall bit rate : 13.4 Mbps
Encoded date : UTC 2013-11-25 21:27:27
Writing application : mkvmerge v6.3.0 ('You can't stop me!') built on Jun 28 2013 20:09:41
Writing library : libebml v1.3.0 + libmatroska v1.4.0

Video
ID : 1
Format : AVC
Format/Info : Advanced Video Codec
Format profile : High@L4.1
Format settings, CABAC : Yes
Format settings, ReFrames : 5 frames
Codec ID : V_MPEG4/ISO/AVC
Duration : 1h 49mn
Bit rate : 11.1 Mbps
Width : 1 920 pixels
Height : 804 pixels
Display aspect ratio : 2.40:1
Frame rate : 23.976 fps
Color space : YUV
Chroma subsampling : 4:2:0
Bit depth : 8 bits
Scan type : Progressive
Bits/(Pixel*Frame) : 0.301
Stream size : 8.53 GiB (83%)
Language : English
Default : Yes
Forced : No

Audio #1
ID : 2
Format : AC-3
Format/Info : Audio Coding 3
Mode extension : CM (complete main)
Codec ID : A_AC3
Duration : 1h 49mn
Bit rate mode : Constant
Bit rate : 448 Kbps
Channel(s) : 6 channels
Channel positions : Front: L C R, Side: L R, LFE
Sampling rate : 48.0 KHz
Bit depth : 16 bits
Compression mode : Lossy
Stream size : 351 MiB (3%)
Language : Russian
Default : Yes
Forced : No

Audio #2
ID : 3
Format : DTS
Format/Info : Digital Theater Systems
Codec ID : A_DTS
Duration : 1h 49mn
Bit rate mode : Constant
Bit rate : 1 510 Kbps
Channel(s) : 6 channels
Channel positions : Front: L C R, Side: L R, LFE
Sampling rate : 48.0 KHz
Bit depth : 24 bits
Compression mode : Lossy
Stream size : 1.16 GiB (11%)
Language : English
Default : No
Forced : No

Text #1
ID : 4
Format : UTF-8
Codec ID : S_TEXT/UTF8
Codec ID/Info : UTF-8 Plain Text
Language : Russian
Default : Yes
Forced : No

Text #2
ID : 5
Format : UTF-8
Codec ID : S_TEXT/UTF8
Codec ID/Info : UTF-8 Plain Text
Language : Russian
Default : No
Forced : No

Menu
00:00:00.000 : en:00:00:00.000
00:07:02.589 : en:00:07:02.589
00:11:59.344 : en:00:11:59.344
00:19:27.625 : en:00:19:27.625
00:25:34.825 : en:00:25:34.825
00:30:02.342 : en:00:30:02.342
00:39:22.068 : en:00:39:22.068
00:57:43.960 : en:00:57:43.960
01:00:59.197 : en:01:00:59.197
01:04:09.637 : en:01:04:09.637
01:07:22.664 : en:01:07:22.664
01:10:34.147 : en:01:10:34.147
01:16:59.865 : en:01:16:59.865
01:22:50.132 : en:01:22:50.132
01:30:19.914 : en:01:30:19.914
01:35:44.530 : en:01:35:44.530
pb.wtf



Скачать Элизиум: Рай не на Земле через торрент http://pic.kartinco.top/images/6/drgbo.jpg Скачать фильм Элизиум: Рай не на Земле через торрент бесплантно в хорошем качестве Описание: В 2154 году существует два класса людей: очень богатые, живущие на чистой, созданной руками человека, космической станции под ... 9.2 10 37
Info! Золотая раздача, скачанное не засчитывается.
Торрент: Зарегистрирован [2013-11-26 03:01] · скачан: 1 502 раз
Статус: √ проверено
Размер: 10.23 GB
Как cкачать? Как скачать Элизиум: Рай не на Земле через торрент | qTorrent

% Раздел Тема Автор DL S | L
Ultra HD (UHD: 2K, 4K, 8K) — видео сверхвысокой чёткости [ 40.68 GB ] Элизиум: Рай не на Земле / Elysium [2013 UHDWEBRip 2160p] DUB+2xAVO [] sheker187 Скачать
2 | 0
Фильмы [HD 720p, 1080p] (Хороший звук DUB, MVO) [ 6.19 GB ] Элизиум: Рай не на Земле / Elysium [2013 BDRip 720p] DUB potroks Скачать
2 | 0
Фильмы 2013 [DVDrip, WEB-DLRip, HDrip] [ 1.07 GB ] Элизиум: Рай не на Земле / Elysium [2013 HDRip-AVC] [AVO] + + Sub killermax2013 Скачать
1 | 1
Фильмы 2013 [DVDrip, WEB-DLRip, HDrip] [ 1.46 GB ] Элизиум: Рай не на Земле / Elysium [2013 WEB-DLRip [Цифровая / Russia] MihailHD Скачать
1 | 0
Фильмы 2013 [DVDrip, WEB-DLRip, HDrip] [ 1.46 GB ] Элизиум: Рай не на Земле / Elysium [2013 HDRip ] MIXX_ON Скачать
1 | 0
Фильмы (DVD фильмы) [ 6.87 GB ] Элизиум: Рай не на Земле / Elysium [2013 DVD9] R5 voovaz Скачать
1 | 0
Фильмы [HD 720p, 1080p] (Хороший звук DUB, MVO) [ 8.34 GB ] Элизиум: Рай не на Земле / Elysium [2013 BDRip 720p] diletant Скачать
1 | 0

28-11-2019 20:33  

Отключить всю рекламу на сайте

27-11-2013 06:03 Элизиум: Рай не на Земле Скачать торрент  

Спасибо за фильм!pb.wtf



30-11-2013 02:13 Элизиум: Рай не на Земле Скачать торрент  

присоединяюсьpb.wtf



    Дорогой пользователь! Огромная просьба, поблагодарите релизера, оцените раздачу и оставьте свои комментарий, если Вы скачали Элизиум: Рай не на Земле через торрент бесплатно! Внесите свою лепту в развитие PiratBit!
    Комментировать посты могут только пользователи прошедшие не сложную регистрацию
    Показать сообщения:    

    Элизиум: Рай не на Земле через торрент
    Скачать бесплатно Элизиум: Рай не на Земле
    Элизиум: Рай не на Земле скачать торрент
    Элизиум: Рай не на Земле смотреть онлайн
    Cкачать фильм Элизиум: Рай не на Земле бесплатно
    Элизиум: Рай не на Земле скачать торрент в хорошем качестве
    Элизиум: Рай не на Земле смотреть онлайн бесплатно в хорошем качестве


    Вы не можете начинать темы
    Вы не можете отвечать на сообщения
    Вы не можете редактировать свои сообщения
    Вы не можете удалять свои сообщения
    Вы не можете голосовать в опросах
    Вы не можете прикреплять файлы к сообщениям
    Вы можете скачивать файлы