Всегда рабочее зеркало без VPN и Proxy просто перед .vidak.icu напиши любое слово или цифру, Пример http://1ibu.vidak.icu

MVO

Лицензия

1 сезон

1

1 сезон

iTunes

1 сезон

13

1 сезон

Deluxe

pack

Рекомендуем

Пиратка

30

ВАЖНО

RePack

MK11

RePack

jed

RePack

fifa19

RePack

RDR2

RePack

NEED FOR SPEED™ PAYBACK

Кинопоиск HD

6 сезон

 Острые козырьки 6 сезон

Все сериалы

все сериалы на PB.wtf

RePack

FAR CRY 5
  
Magnet ссылка

Константин Никольский - Концерт в Одессе [2005 г., Rock, DVDRip] pb.wtf

Константин Никольский - Концерт в Одессе через торрент pb.wtf

Размер: 1.37 GB | Добавлен: 8 лет 6 мес. назад | Торрент скачан:102 раза
Смотреть онлайн Константин Никольский - Концерт в Одессе | Скачать    Ребята, помогите собрать деньги на оплату серверов!!!

08-12-2013 16:09 Константин Никольский - Концерт в Одессе Скачать торрент  

Константин Никольский - Концерт в Одессе
Год выпуска: 2005
Страна: Украина
Жанр: Rock
Продолжительность: 01:35:03
Перевод: Оригинал

В ролях: Константин Никольский

Описание: Константин Николаевич Никольский (родился 1 февраля 1951, Москва) — русский советский рок-музыкант, автор песен. Известен как сольной карьерой, так и участием в ансамблях «Атланты», «Осколки вертолета Сикорского», «Счастливое семейство», «Цветы», «Группа Стаса Намина», «Фестиваль», «Воскресение», «Зеркало мира».
На диске представлено выступление в Одессе в 2005 год, концерт в Украинском театре. Диск выполнен с CAMRip, достаточно неплохого качества записи, а песня Музыкант ("Повесил свой сюртук на спинку стула музыкант...") в сольном исполнении Константина Никольского является жемчужиной его выступления.
1.Ещё не сгустились тени (записана не сначала)
2.Спи душа моя
3.От любви к любви
4.Прошедший день
5.Я бреду по бездорожью
6.Мне только снится жизнь моя
7.В тишине заката
8.Только там
9.Цветок у окна
10.Пред чертой меж будущим и прошлым
11.Песня о песне
12.Облако
13.Музыкант
14.Когда поймёшь умом
15.Один взгляд назад
16.Ночная птица
17.Мой друг художник и поэт
18.Я сам из тех
19.Птицы белые мои
20.Голос
Качество: DVDRip
Формат: AVI
Видео кодек: XviD
Аудио кодек: MP3
Видео: Xvid 640x480, 25.00fps, 1726 kbps
Аудио: MPEG Audio Layer 3, 48000Hz stereo, 320kbps
Релиз от: HE-ANGEL





General
Complete name : I:konstantin_nikolskiy_v_odesse_[tfile.ru].avi
Format : AVI
Format/Info : Audio Video Interleave
File size : 1.37 GiB
Duration : 1h 35mn
Overall bit rate mode : Variable
Overall bit rate : 2 059 Kbps
Writing application : VirtualDubMod 1.5.4.1 (build 2178/release)
Writing library : VirtualDubMod build 2178/release

Video
ID : 0
Format : MPEG-4 Visual
Format profile : Advanced [email protected]
Format settings, BVOP : 1
Format settings, QPel : No
Format settings, GMC : No warppoints
Format settings, Matrix : Custom
Codec ID : XVID
Codec ID/Hint : XviD
Duration : 1h 35mn
Bit rate : 1 726 Kbps
Width : 640 pixels
Height : 480 pixels
Display aspect ratio : 4:3
Frame rate : 25.000 fps
Color space : YUV
Chroma subsampling : 4:2:0
Bit depth : 8 bits
Scan type : Progressive
Compression mode : Lossy
Bits/(Pixel*Frame) : 0.225
Stream size : 1.15 GiB (84%)
Writing library : XviD 1.2.1 (UTC 2008-12-04)

Audio
ID : 1
Format : MPEG Audio
Format version : Version 1
Format profile : Layer 3
Mode : Joint stereo
Codec ID : 55
Codec ID/Hint : MP3
Duration : 1h 35mn
Bit rate mode : Variable
Bit rate : 320 Kbps
Channel(s) : 2 channels
Sampling rate : 48.0 KHz
Compression mode : Lossy
Stream size : 218 MiB (16%)
Alignment : Aligned on interleaves
Interleave, duration : 24 ms (0.60 video frame)
Interleave, preload duration : 482 ms
Writing library : LAME3.98r
Encoding settings : -m j -V 4 -q 2 -lowpass 20.5 --abr
Language : English

pb.wtf



Скачать Константин Никольский - Концерт в Одессе через торрент https://pic1.kartinco.top/images/61/2bhv5.jpg Скачать, смотреть онлайн Константин Никольский - Концерт в Одессе [2005 г., Rock, DVDRip] бесплантно в хорошем качестве Описание: Константин Николаевич Никольский (родился 1 февраля 1951, Москва) — русский советский рок-музыкант, автор песен. Известен как ... 9.8 10 5
Info! Золотая раздача, скачанное не засчитывается.
Торрент: Зарегистрирован [2013-12-08 16:09] · скачан: 102 раз
Статус: √ проверено
Размер: 1.37 GB
Как cкачать? Как скачать Константин Никольский - Концерт в Одессе через торрент | UTorrent

28-11-2019 20:33  

Отключить всю рекламу на сайте

08-12-2013 17:16 Константин Никольский - Концерт в Одессе Скачать торрент  

Спи, душа моя. Там долго не хватало чего-то… Кстати, эту песню не крутят по радио вредные дядьки и тетки, все эти ведущие программ.
Они все время спрашивают у меня чего-нибудь новенького. Я им говорю: «Да возьмите мои старые альбомы, там полно песен, неизвестных вам!»
Константин Никольский .

...А давайте так и сделаем
lug30 ,становится уже хорошей привычкой - благодарить Вас .
Спасибо !pb.wtf



08-12-2013 17:48 Константин Никольский - Концерт в Одессе Скачать торрент  

Отличного просмотра!!!pb.wtf



08-12-2013 19:44 Константин Никольский - Концерт в Одессе Скачать торрент  

Не DVD Rip. Обычный CamRip. Информация хорошая. Качество- говно. Учитывая то, что Никольского в качестве нет вовсе- можно раз глянуть. Раздающему спасибо, но исправьте спойлер.pb.wtf



09-12-2013 12:33 Константин Никольский - Концерт в Одессе Скачать торрент  

Чудесные тексты, но такие незапоминающиеся однообразные мелодии.pb.wtf



    Дорогой пользователь! Огромная просьба, поблагодарите релизера, оцените раздачу и оставьте свои комментарий, если Вы скачали Константин Никольский - Концерт в Одессе через торрент бесплатно!
    Комментировать посты могут только пользователи прошедшие не сложную регистрацию
    Показать сообщения:    

    Константин Никольский - Концерт в Одессе через торрент
    Скачать бесплатно Константин Никольский - Концерт в Одессе
    Константин Никольский - Концерт в Одессе скачать торрент
    Константин Никольский - Концерт в Одессе смотреть онлайн
    Cкачать фильм Константин Никольский - Концерт в Одессе бесплатно
    Константин Никольский - Концерт в Одессе скачать торрент в хорошем качестве
    Константин Никольский - Концерт в Одессе смотреть онлайн бесплатно в хорошем качестве


    Вы не можете начинать темы
    Вы не можете отвечать на сообщения
    Вы не можете редактировать свои сообщения
    Вы не можете удалять свои сообщения
    Вы не можете голосовать в опросах
    Вы не можете прикреплять файлы к сообщениям
    Вы можете скачивать файлы