Всегда рабочее зеркало без VPN и Proxy просто перед .vidak.icu напиши любое слово или цифру, Пример http://07km.vidak.icu

Лицензия

MVO

1 сезон

1

1 сезон

iTunes

1 сезон

13

1 сезон

Deluxe

pack

Рекомендуем

Repack

30

ВАЖНО

RePack

MK11

RePack

jed

RePack

fifa19

RePack

RDR2

RePack

NEED FOR SPEED™ PAYBACK

Кинопоиск HD

6 сезон

 Острые козырьки 6 сезон

Все сериалы

все сериалы на PB.wtf

RePack

FAR CRY 5
  
Magnet ссылка

Современный интернет-магазин с нуля (Жур Артур) [2013 г., Обучающее видео, SWF, mp4] pb.wtf

Современный интернет-магазин с нуля через торрент pb.wtf

Размер: 18.64 GB | Добавлен: 8 лет 8 мес. назад | Торрент скачан:355 раз
Смотреть онлайн Современный интернет-магазин с нуля | Скачать    Ребята, помогите собрать деньги на оплату серверов!!!

14-12-2013 05:24 Современный интернет-магазин с нуля Скачать торрент  

Современный интернет-магазин с нуля

Год выпуска: 2013
Страна: Россия
Жанр: Обучающее видео
Продолжительность: 25:28:38
Перевод: Не требуется

Автор: Жур Артур

Описание:
Новейший обучающий видеокурс, из которого вы узнаете все секреты и профессиональные моменты создания современного интернет магазина с нуля!
Хотите научиться создавать современные Интернет-Магазины?И изучить такие языки как - JavaScript(JQuery, Ajax), PHP и MySQL?
Представляем Вам новейший обучающий видеокурс, из которого вы узнаете все секреты и профессиональные моменты создания современного интернет магазина с нуля!

После прохождения видеокурса Вы научитесь работать с такими языками как PHP, Базами MySQL, JQuery и Ajax.
Если Вы даже не знакомы с такими языками или вообще новичок в сайтостроении, то данный видеокурс отлично Вам подойдёт и в процессе обучения Вы узнаете как создать свой интернет-магазин под ключ, тоесть, мы с Вами пройдём путь от создания дизайна до подключения платёжных сервисов к магазину.
После прохождения курса Вы с полной уверенностью сможете открыть свой интернет-магазин!
Часть 1. Дизайн сайта, HTML и CSS разметка
Подготовка
Разметка сайта
Верхняя навигация
Логотип и Информационный блок
Поиск товаров
Средняя навигация
Блок - Категории товаров
Блок - Ввыбор по параметрам
Блок - Новости и акции
Футер (низ сайта)
Навигационная цепочка, вид товаров и сортировка

Часть 2. База данных и Программирование сайта
Архитектура БД сайта
Вывод товаров с БД
Вид товаров
Сортировка товаров
Блок - категории товаров
Вывод товаров по категориям
Выбор товаров по фильтру
Блок - Новости и Акции
Постраничная навигация товаров
Регистрация. Часть 1
Регистрация. Часть 2
Авторизация. Часть 1
Авторизация. Часть 2
Восстановление забытого пароля
Профиль и изменение профиля
Поиск товаров
Айстопперы - Новинки, лидеры продаж, распродажа
Корзина товаров
Способ доставки и контактная информация
Асинхронное добавление товара в корзину
Асинхронное изменение количества товаров
Вывод информации о товаре
Вывод миниатюрных изображений
Вывод описания и характеристик
Отзывы к товарам
Рейтинг товаров. Своя кнопка Like
Вывод случайных и популярных товаров
Форма обратной связи
Защита Интернет-Магазина
Завершающий урок. Мелкие доработки

Часть 3. Панель управления Интернет-Магазина
Авторизация
HTML и CSS разметка
Вывод товаров Интернет-Магазина
Добавление товара. Часть 1
Добавление товара. Часть 2
Изменение товара
Вывод отзывов и модерация
Категории товаров. Добавление и удаление
Вывод Зарегистрированных клиентов
Новостной блок. Добавление и удаление новостей
Добавление администраторов
Вывод и изменение администраторов
Вывод и просмотр заказов
Общая статистика и статистика продаж
Уведомления о новых заказах и отзывах
Привилегии администраторов и права доступа

Часть 4. Подключение платёжных сервисов к Интернет-Магазину
Платежный сервис. Подключение Интернет-Магазина
Скрипт оплаты. Обзор и установка
Проверка Скрипта. Оплачиваем товар

Бонусы
1) Авторизация через Соц.Сети, Блоги, Видеохостинги, Почтовые сервисы и Платёжные системы
В этом бесплатном видеоуроке, Вы узнаете как реализовать авторизацию на своём сайте через популярные сервисы и соц.сети.

2) Уроки по созданию красивых и интуитивных ссылок для вашего сайта
Урок посвящён реализации понятного для восприятия человеком URL. Мы на примере разберём как внедрить на свой сайт красивый и понятный URL, тем самым избавив себя от невзрачных и непонятных Урлов. Я подробно расскажу все этапы построения ЧПУ, разберём все возможные ошибки и трудности которые могут встретиться на Вашем пути.
Modern_online_shop_Disc.iso
CRC32: C5EBF938
MD5: 67AA829A3A8CE24F31D09FCDE3A68B3C
SHA-1: 37B1E12EE861E6F6D6B50B0FD20FFED982EC0E32
Общее
Полное имя : I:video1.1.mp4
Формат : MPEG-4
Профиль формата : Base Media / Version 2
Идентификатор кодека : mp42
Общий поток : 2422 Кбит/сек
Дата кодирования : UTC 2013-07-22 13:22:56
Дата пометки : UTC 2013-07-22 13:22:56

Видео
Идентификатор : 1
Формат : AVC
Формат/Информация : Advanced Video Codec
Профиль формата : [email protected]
Параметр CABAC формата : Да
Параметр ReFrames формата : 4 кадра
Параметр GOP формата : M=1, N=10
Идентификатор кодека : avc1
Идентификатор кодека/Информация : Advanced Video Coding
Вид битрейта : Переменный
Битрейт : 2327 Кбит/сек
Ширина : 1280 пикселей
Высота : 720 пикселей
Соотношение сторон : 16:9
Режим частоты кадров : Постоянный
Частота кадров : 10,000 кадров/сек
Цветовое пространство : YUV
Субдискретизация насыщенности : 4:2:0
Битовая глубина : 8 бит
Тип развёртки : Прогрессивная
Бит/(Пиксели*Кадры) : 0.253
Размер потока : 58,8 Мбайт (96%)
Язык : English
Дата кодирования : UTC 2013-07-22 13:22:56
Дата пометки : UTC 2013-07-22 13:22:56
mdhd_Duration : 212104
Основные цвета : BT.709
Характеристики трансфера : BT.709
Коэффициенты матрицы : BT.709

Аудио
Идентификатор : 2
Формат : AAC
Формат/Информация : Advanced Audio Codec
Профиль формата : LC
Идентификатор кодека : 40
Вид битрейта : Постоянный
Битрейт : 93,6 Кбит/сек
Каналы : 2 канала
Расположение каналов : Front: L R
Частота : 44,1 КГц
Метод сжатия : С потерями
Размер потока : 2,37 Мбайт (4%)
Размер потока оригинала : 2,37 Мбайт (4%)
Язык : English
Дата кодирования : UTC 2013-07-22 13:22:56
Дата пометки : UTC 2013-07-22 13:22:56
mdhd_Duration : 212142

Формат: SWF, mp4
Видео кодек: AVC
Аудио кодек: AAC
Видео: AVC, 1 280x720px, 16:9, 2327 Кбит/сек
Аудио: AAC, 44.1 KHz, 93 Kbps, 2 channels
pb.wtf



Скачать Современный интернет-магазин с нуля через торрент http://i59.fastpic.ru/big/2013/1214/ec/de5b15c6cb4c626a6b8f2466041875ec.png Скачать, смотреть онлайн Современный интернет-магазин с нуля бесплантно в хорошем качестве Описание:Новейший обучающий видеокурс, из которого вы узнаете все секреты и профессиональные моменты создания современного интернет ... 9.4 10 13
Info! Золотая раздача, скачанное не засчитывается.
Торрент: Зарегистрирован [2013-12-14 05:24] · скачан: 355 раз
Статус: √ проверено
Размер: 18.64 GB
Как cкачать? Как скачать Современный интернет-магазин с нуля через торрент | UTorrent

28-11-2019 20:33  

Отключить вcю реклaмy на сайте

    Дорогой пользователь! Огромная просьба, поблагодарите релизера, оцените раздачу и оставьте свои комментарий, если Вы скачали Современный интернет-магазин с нуля через торрент бесплатно!
    Комментировать посты могут только пользователи прошедшие не сложную регистрацию
    Показать сообщения:    

    Современный интернет-магазин с нуля через торрент
    Скачать бесплатно Современный интернет-магазин с нуля
    Современный интернет-магазин с нуля скачать торрент
    Современный интернет-магазин с нуля смотреть онлайн
    Cкачать фильм Современный интернет-магазин с нуля бесплатно
    Современный интернет-магазин с нуля скачать торрент в хорошем качестве
    Современный интернет-магазин с нуля смотреть онлайн бесплатно в хорошем качестве


    Вы не можете начинать темы
    Вы не можете отвечать на сообщения
    Вы не можете редактировать свои сообщения
    Вы не можете удалять свои сообщения
    Вы не можете голосовать в опросах
    Вы не можете прикреплять файлы к сообщениям
    Вы можете скачивать файлы