Ссылка на приватное зеркало всего за 1$. Внимание количество ограничено!!!

OK

1+1

iTunes

мы

OK

1

WEB-DLRip

Джокер

Пифагор

Ведьмак / The Witcher сериал

iTunes

ПШазам

ОК

Оно 2

iTunes

30
pack

Вам бонус

ВАЖНО

!!Акция!!

Alien_RageХит недели

RePack

Resident Evil 21

ИГРА 18+

pack

RePack

jed

RePack

fifa19

RePack

Assassins Creed: Odyssey

RePack

NEED FOR SPEED™ PAYBACK

4 сезон

9 сезон

Бесстыжие 9 сезон

Все сериалы

все сериалы на PB.wtf

RePack

FAR CRY 5
  

Спасти Санту / Saving Santa (Леон Джусен, Аарон Силман / Leon Joosen, Aaron Seelman) [2013, мультфильм, мюзикл, комедия, приключения, семейный, DVD5] R5 pb.wtf

Спасти Санту через торрент pb.wtf

Размер: 4.13 GB | Добавлен: 6 лет 1 мес. назад | Торрент скачан:142 раза
Скачать  

13-12-2013 21:04 Спасти Санту Скачать торрент  


Спасти Санту / Saving Santa
«На машине времени за Новым годом!»
Страна: Великобритания, США
Студия: Gateway Films, Prana Animation Studios, Prana Studios
Жанр: мультфильм, мюзикл, комедия, приключения, семейный
Год выпуска: 2013
Мировая премьера: 5 ноября 2013
Российская премьера: 21 ноября 2013, 3D
Дата выхода DVD: 17 декабря 2013
Продолжительность: 01:20:20
Перевод: Профессиональный (дублированный) [Лицензия]
Cубтитры: нет
Оригинальная аудиодорожка: нет
Режиссер: Леон Джусен, Аарон Силман / Leon Joosen, Aaron Seelman
Роли озвучивали: Ньюэлл Александр, Ноэль Кларк, Джоан Коллинз, Тим Конуэй, Дэвид Кауджилл, Тим Карри, Холли Дорфф, Муси Дриер, Пэм Феррис, Мартин Фриман...
Роли дублировали: Алексей Чумаков, Михаил Пореченков, Владислав Лисовец, Юлия Ковальчук
Описание: Эльф Бернард — очень мил, весел, и… слегка несерьёзен. Но ему придется измениться, ведь у него впереди потрясающее и очень опасное приключение! Кто-то собирается похитить Санту и его волшебные сани, в которых можно перемещаться в разные эпохи. А без Санты Новый год никогда не наступит! Бернарду придётся переместиться во времени, сразиться со злодеем, остановить его армию, изменить прошлое, спасти Новый год и стать настоящим героем!
Бонусы: нет

Релиз группы:
Качество: DVD5 R5
Формат: DVD-Video
Видео кодек: MPEG2
Аудио кодек: AC3
Видео: PAL 16:9 (720x576(0.626)) MPEG Video, 25,000 кадр/сек, 6490 Кбит/сек
Аудио: Russian (Dolby AC3, 6 ch) 448 Кбит/сек, 48,0 КГц



Title: Spasti.Santu.2013.DVD5
Size: 4.13 Gb ( 4 330 594,00 KBytes ) - DVD-5
Enabled regions: 1, 2, 3, 4, 5, 6, 7, 8

VTS_01 :
Play Length: 00:00:10
Video: PAL 4:3 (720x576) VBR
Audio:
Russian (Dolby AC3, 2 ch)

VTS_02 :
Play Length: 00:00:30
Video: PAL 16:9 (720x576) VBR, Auto Letterboxed
Audio:
Russian (Dolby AC3, 2 ch)

VTS_03 :
Play Length: 01:20:19
Video: PAL 16:9 (720x576) VBR, Auto Letterboxed
Audio:
Russian (Dolby AC3, 6 ch)

* Menus Information *

VIDEO_TS Menu
Video:
PAL 4:3 (720x576) VBR
English Language Unit :
Title Menu

VTS_01 Menu
Video:
PAL 16:9 (720x576) VBR
Auto Letterboxed
Audio:
Not specified (Dolby AC3, 2 ch)
English Language Unit :
Root Menu

VTS_02 Menu
Video:
PAL 4:3 (720x576) VBR
English Language Unit :
Root Menu

VTS_03 Menu
Video:
PAL 4:3 (720x576) VBR
English Language Unit :
Root Menu
Общее
Полное имя : D:Новинки 2013Spasti.Santu.2013.DVD5VIDEO_TSVTS_03_1.VOB
Формат : MPEG-PS
Размер файла : 1024 Мбайт
Продолжительность : 20 м.
Режим общего битрейта : Переменный
Общий поток : 7079 Кбит/сек

Видео
Идентификатор : 224 (0xE0)
Формат : MPEG Video
Версия формата : Version 2
Профиль формата : Main@Main
Параметр BVOP формата : Да
Параметр матрицы формата : Выборочная
Параметр GOP формата : Variable
Продолжительность : 20 м.
Вид битрейта : Переменный
Битрейт : 6490 Кбит/сек
Максимальный битрейт : 7000 Кбит/сек
Ширина : 720 пикселей
Высота : 576 пикселей
Соотношение сторон : 16:9
Частота кадров : 25,000 кадров/сек
Стандарт вещания : PAL
Цветовое пространство : YUV
Субдискретизация насыщенности : 4:2:0
Битовая глубина : 8 бит
Тип развёртки : Прогрессивная
Метод сжатия : С потерями
Бит/(Пиксели*Кадры) : 0.626
Временной код первого кадра : 00:00:00:00
Оригинал временного кода : Group of pictures header
Размер потока : 939 Мбайт (92%)

Аудио
Идентификатор : 189 (0xBD)-128 (0x80)
Формат : AC-3
Формат/Информация : Audio Coding 3
Расширение режима : CM (complete main)
Параметр Endianness формата : Big
Режим смешивания : DVD-Video
Продолжительность : 20 м.
Вид битрейта : Постоянный
Битрейт : 448 Кбит/сек
Каналы : 6 каналов
Расположение каналов : Front: L C R, Side: L R, LFE
Частота : 48,0 КГц
Битовая глубина : 16 бит
Метод сжатия : С потерями
Размер потока : 64,8 Мбайт (6%)










pb.wtf



Скачать Спасти Санту через торрент http://i58.fastpic.ru/big/2013/1213/a8/671163f1411a5175e8f5ae88a67596a8.jpg Скачать фильм Спасти Санту через торрент бесплантно в хорошем качестве Описание: Эльф Бернард — очень мил, весел, и… слегка несерьёзен. Но ему придется измениться, ведь у него впереди потрясающее и очень ... 10 10 3
Info! Золотая раздача, скачанное не засчитывается.
Торрент: Зарегистрирован [2013-12-13 21:04] · скачан: 142 раз
Статус: √ проверено
Размер: 4.13 GB
Как cкачать? Как скачать Спасти Санту через торрент | qTorrent

28-11-2019 20:33  

Отключить всю рекламу на сайте

14-12-2013 07:14 Спасти Санту Скачать торрент  

Кто посмотрел, как мульт?pb.wtf



    Дорогой пользователь! Огромная просьба, поблагодарите релизера, оцените раздачу и оставьте свои комментарий, если Вы скачали Спасти Санту через торрент бесплатно! Внесите свою лепту в развитие PiratBit!
    Комментировать посты могут только пользователи прошедшие не сложную регистрацию
    Показать сообщения:    

    Спасти Санту через торрент
    Скачать бесплатно Спасти Санту
    Спасти Санту скачать торрент
    Спасти Санту смотреть онлайн
    Cкачать фильм Спасти Санту бесплатно
    Спасти Санту скачать торрент в хорошем качестве
    Спасти Санту смотреть онлайн бесплатно в хорошем качестве


    Вы не можете начинать темы
    Вы не можете отвечать на сообщения
    Вы не можете редактировать свои сообщения
    Вы не можете удалять свои сообщения
    Вы не можете голосовать в опросах
    Вы не можете прикреплять файлы к сообщениям
    Вы можете скачивать файлы