Всегда рабочее зеркало без VPN и Proxy просто перед .vidak.icu напиши любое слово или цифру, Пример http://930d.vidak.icu

Лицензия

MVO

1 сезон

1

1 сезон

iTunes

1 сезон

13

1 сезон

Deluxe

pack

Рекомендуем

Repack

30

ВАЖНО

RePack

MK11

RePack

jed

RePack

fifa19

RePack

RDR2

RePack

NEED FOR SPEED™ PAYBACK

Кинопоиск HD

6 сезон

 Острые козырьки 6 сезон

Все сериалы

все сериалы на PB.wtf

RePack

FAR CRY 5
  
Magnet ссылка

Сила креативного дизайна (Виталий Юшков., Борис Поташник) [2013 г., Обучающее видео, PCRec] pb.wtf

Сила креативного дизайна через торрент pb.wtf

Размер: 4.52 GB | Добавлен: 8 лет 7 мес. назад | Торрент скачан:122 раза
Смотреть онлайн Сила креативного дизайна | Скачать    Ребята, помогите собрать деньги на оплату серверов!!!

23-12-2013 18:10 Сила креативного дизайна Скачать торрент  

Сила креативного дизайна

Год выпуска: 2013
Страна: Россия
Жанр: Обучающее видео
Продолжительность: 14:56:18
Перевод: Не требуется

Авторы: Виталий Юшков., Борис Поташник

Описание:
Обучающий видеокурс о том, как стать креативным дизайнером — выучиться придумывать классные дизайнерские идеи и мастерски реализовывать их с помощью программы adobe photoshop. Дизайнер, способный создавать интересные креативные образы, постоянно востребован!
-Вы научитесь создавать эффективную креативную рекламу, которая будет продавать.
-Вы научитесь разрабатывать печатную рекламу, оперируя знаниями дизайна, маркетинга и психологии.
-Вы освоите приемы рекламного креатива и овладеете технологиями создания успешных рекламных концепций.
-Вы своей работе вы сможете совмещать творчество с научным подходом.
-Вы будете знать, какую креативную технику и прием необходимо применить, чтобы добиться определенного результата.
-Вы овладеете профессиональной аргументацией и сможете грамотно презентовать ваш проект клиенту.
-Вы научитесь не только придумывать интересные идеи для креативной рекламы, но и реализовывать их с помощью программы Adobe Photoshop.
-Вы существенно повысите свой профессиональный уровень и увеличите шанс успешного трудоустройства.
-Вы получите мощный заряд вдохновения и творческой энергии, которая поможет вам создать серию интересных креативных работ для вашего портфолио.
-Вы получите основу для профессии, которая будет не только финансово обеспечивать вас, но и приносить радость творчества, способствовать постоянному личностному росту.
Общее
Полное имя : E:111Видеоурокиsila.kreat.dizsila.kreat.dizPowercreativeAutoPlayPage13session.mp4
Формат : MPEG-4
Профиль формата : Base Media / Version 2
Идентификатор кодека : mp42
Общий поток : 401 Кбит/сек
Дата кодирования : UTC 2013-07-19 17:37:38
Дата пометки : UTC 2013-07-19 17:37:38

Видео
Идентификатор : 1
Формат : AVC
Формат/Информация : Advanced Video Codec
Профиль формата : [email protected]
Параметр CABAC формата : Да
Параметр ReFrames формата : 4 кадра
Идентификатор кодека : avc1
Идентификатор кодека/Информация : Advanced Video Coding
Вид битрейта : Переменный
Битрейт : 273 Кбит/сек
Ширина : 1300 пикселей
Высота : 660 пикселей
Соотношение сторон : 1,970
Режим частоты кадров : Постоянный
Частота кадров : 15,000 кадров/сек
Цветовое пространство : YUV
Субдискретизация насыщенности : 4:2:0
Битовая глубина : 8 бит
Тип развёртки : Прогрессивная
Бит/(Пиксели*Кадры) : 0.021
Размер потока : 132 Мбайт (68%)
Размер потока оригинала : 132 Мбайт (68%)
Язык : English
Дата кодирования : UTC 2013-07-19 17:37:38
Дата пометки : UTC 2013-07-19 17:37:38
mdhd_Duration : 4038390
Основные цвета : BT.709
Характеристики трансфера : BT.709
Коэффициенты матрицы : BT.709

Аудио
Идентификатор : 2
Формат : AAC
Формат/Информация : Advanced Audio Codec
Профиль формата : LC
Идентификатор кодека : 40
Вид битрейта : Постоянный
Битрейт : 126 Кбит/сек
Каналы : 2 канала
Расположение каналов : Front: L R
Частота : 44,1 КГц
Метод сжатия : С потерями
Размер потока : 60,5 Мбайт (31%)
Размер потока оригинала : 60,5 Мбайт (31%)
Язык : English
Дата кодирования : UTC 2013-07-19 17:37:38
Дата пометки : UTC 2013-07-19 17:37:38
mdhd_Duration : 4035242
Качество: PCRec
Формат: Autorun, mp4
Видео кодек: AVC
Аудио кодек: AAC
Видео: AVC, 1300x660, 1,970, 15,000 кадров/сек, 273 Кбит/сек
Аудио: AAC, 44,1 КГц, 126 Кбит/сек, 2 каналаpb.wtf



Скачать Сила креативного дизайна через торрент http://i59.fastpic.ru/big/2013/1223/da/88286c5f48612f7d4349d055185cabda.png Скачать, смотреть онлайн Сила креативного дизайна бесплантно в хорошем качестве Описание:Обучающий видеокурс о том, как стать креативным дизайнером — выучиться придумывать классные дизайнерские идеи и мастерски ... 8.9 10 8
Info! Золотая раздача, скачанное не засчитывается.
Торрент: Зарегистрирован [2013-12-24 16:34] · скачан: 122 раз
Статус: √ проверено
Размер: 4.52 GB
Как cкачать? Как скачать Сила креативного дизайна через торрент | UTorrent

28-11-2019 20:33  

Отключить вcю реклaмy на сайте

    Дорогой пользователь! Огромная просьба, поблагодарите релизера, оцените раздачу и оставьте свои комментарий, если Вы скачали Сила креативного дизайна через торрент бесплатно!
    Комментировать посты могут только пользователи прошедшие не сложную регистрацию
    Показать сообщения:    

    Сила креативного дизайна через торрент
    Скачать бесплатно Сила креативного дизайна
    Сила креативного дизайна скачать торрент
    Сила креативного дизайна смотреть онлайн
    Cкачать фильм Сила креативного дизайна бесплатно
    Сила креативного дизайна скачать торрент в хорошем качестве
    Сила креативного дизайна смотреть онлайн бесплатно в хорошем качестве


    Вы не можете начинать темы
    Вы не можете отвечать на сообщения
    Вы не можете редактировать свои сообщения
    Вы не можете удалять свои сообщения
    Вы не можете голосовать в опросах
    Вы не можете прикреплять файлы к сообщениям
    Вы можете скачивать файлы