Всегда рабочее зеркало без VPN и Proxy просто перед .vidak.icu напиши любое слово или цифру, Пример http://a15h.vidak.icu

MVO

Лицензия

1 сезон

1

1 сезон

iTunes

1 сезон

13

1 сезон

Deluxe

pack

Рекомендуем

Repack

30

ВАЖНО

RePack

MK11

RePack

jed

RePack

fifa19

RePack

RDR2

RePack

NEED FOR SPEED™ PAYBACK

Кинопоиск HD

6 сезон

 Острые козырьки 6 сезон

Все сериалы

все сериалы на PB.wtf

RePack

FAR CRY 5
  
Magnet ссылка

Стартрек: Возмездие 3D / Star Trek Into Darkness 3D (Джей Джей Абрамс / J.J. Abrams) [2013, фантастика, боевик, приключения , BDRip 1080p, DUB] [Лицензия] Half OverUnder / Вертикальная анаморфная стереопара (Crop Anamorph OverUnder) pb.wtf

Стартрек: Возмездие 3D через торрент pb.wtf

Размер: 18.41 GB | Добавлен: 8 лет 9 мес. назад | Торрент скачан:1228 раз
Смотреть онлайн Стартрек: Возмездие 3D | Скачать    Ребята, помогите собрать деньги на оплату серверов!!!

11-09-2013 20:01 Стартрек: Возмездие 3D Скачать торрент  

Стартрек: Возмездие 3D/ Star Trek Into Darkness 3D

Год выпуска : 2013
Страна: США
Жанр: Фантастика, боевик, приключения

Продолжительность: 02:12:05
Перевод: Профессиональный (полное дублирование) [Лицензия]

Режиссер: Джей Джей Абрамс / J.J. Abrams
В ролях: Крис Пайн (Kirk), Закари Куинто (Spock), Бенедикт Камбербэтч (John Harrison), Саймон Пегг (Scotty), Карл Урбан (Bones), Зои Салдана (Uhura), Элис Ив (Carol), Джон Чо (Sulu), Антон Ельчин (Chekov), Питер Уэллер (Marcus), Брюс Гринвуд (Pike), Леонард Нимой (Spock Prime, в титрах не указан)
Описание: Вернувшись на Землю, команда корабля «Энтерпрайз» обнаруживает, что деятельность и принципы их организации подорваны изнутри. Флот скован необъяснимым ужасом и бездействует, пока мир все глубже погружается в бездну.
Капитан Кирк берет на себя руководство операцией по поимке злодея, ответственного за этот хаос и способного уничтожить все человечество.
В запутанной игре не на жизнь, а на смерть, любовь и дружба будут принесены в жертву ради единственного, что осталось у Кирка - его команды.
Рейтинг

imdb.com: 8.00 (164 072)
MPAA: PG-13 - Детям до 13 лет просмотр не желателен
Формат 3D: Half OverUnder / Вертикальная анаморфная стереопара (Crop Anamorph OverUnder- Без чёрных полос)

Качество: BDRip 1080p
Формат: MKV
Видео кодек: AVC
Аудио кодек: AC3
Видео: AVC, 1920x1080 (16:9), 18273 kbps, 23,976 fps
Аудио №1: русский / AC3 / 5.1 / 48 kHz / 640 kbps / 16 bit
Аудио №2: английский / AC3 / 5.1 / 48 kHz / 640 kbps / 16 bit
Справа и слева у видеоряда обрезано по 248р, что дает возможность просмотра на полный экран (без черных полос) на телевизорах с соотношением сторон 16:9 без изменения пропорций. На мой взгляд плюсы данных рипов- это более глубокое восприятие 3D-эффектов (конечно там где они есть) К минусам отнесу- вынужденное обрезание кадра по бокам. Так-что господа- выбор за вами! Всем приятного просмотра!

General
Unique ID : 204757050660068119494168907300464826921 (0x9A0AC605586A7778AA0CE32A5F851A29)
Complete name : I:Star Trek Into Darkness_(CROP)_Rip by Dag13.mkv
Format : Matroska
Format version : Version 2
File size : 18.4 GiB
Duration : 2h 12mn
Overall bit rate : 20.0 Mbps
Encoded date : UTC 2013-09-11 14:13:32
Writing application : mkvmerge v3.4.0 ('Rapunzel') сборка от May 15 2010 09:38:20
Writing library : libebml v0.8.0 + libmatroska v0.9.0

Video
ID : 1
Format : AVC
Format/Info : Advanced Video Codec
Format profile : [email protected]
Format settings, CABAC : Yes
Format settings, ReFrames : 4 frames
Codec ID : V_MPEG4/ISO/AVC
Duration : 2h 12mn
Bit rate : 18.3 Mbps
Width : 1 920 pixels
Height : 1 080 pixels
Display aspect ratio : 16:9
Frame rate : 23.976 fps
Color space : YUV
Chroma subsampling : 4:2:0
Bit depth : 8 bits
Scan type : Progressive
Bits/(Pixel*Frame) : 0.368
Stream size : 16.9 GiB (92%)
Title : Rip by Dag13
Writing library : x264 core 120 r2145 748fe16
Encoding settings : cabac=1 / ref=4 / deblock=1:-3:-3 / analyse=0x3:0x113 / me=umh / subme=9 / psy=1 / psy_rd=1.00:0.00 / mixed_ref=1 / me_range=16 / chroma_me=1 / trellis=2 / 8x8dct=1 / cqm=0 / deadzone=21,11 / fast_pskip=1 / chroma_qp_offset=-2 / threads=9 / sliced_threads=0 / nr=0 / decimate=1 / interlaced=0 / bluray_compat=0 / constrained_intra=0 / bframes=6 / b_pyramid=2 / b_adapt=2 / b_bias=0 / direct=3 / weightb=1 / open_gop=0 / weightp=2 / keyint=250 / keyint_min=23 / scenecut=40 / intra_refresh=0 / rc_lookahead=60 / rc=crf / mbtree=1 / crf=17.0 / qcomp=0.60 / qpmin=1 / qpmax=69 / qpstep=4 / ip_ratio=1.40 / aq=1:1.00
Language : English
Default : No
Forced : No

Audio #1
ID : 2
Format : AC-3
Format/Info : Audio Coding 3
Mode extension : CM (complete main)
Codec ID : A_AC3
Duration : 2h 12mn
Bit rate mode : Constant
Bit rate : 640 Kbps
Channel(s) : 6 channels
Channel positions : Front: L C R, Side: L R, LFE
Sampling rate : 48.0 KHz
Bit depth : 16 bits
Compression mode : Lossy
Stream size : 605 MiB (3%)
Language : Russian
Default : Yes
Forced : No

Audio #2
ID : 3
Format : AC-3
Format/Info : Audio Coding 3
Mode extension : CM (complete main)
Codec ID : A_AC3
Duration : 2h 12mn
Bit rate mode : Constant
Bit rate : 640 Kbps
Channel(s) : 6 channels
Channel positions : Front: L C R, Side: L R, LFE
Sampling rate : 48.0 KHz
Bit depth : 16 bits
Compression mode : Lossy
Stream size : 605 MiB (3%)
Language : English
Default : No
Forced : No

pb.wtf



Скачать Стартрек: Возмездие 3D через торрент http://i5.imageban.ru/out/2013/09/05/cb0ddf056f2170cc0a4e7b600e903087.png Скачать, смотреть онлайн Стартрек: Возмездие 3D бесплантно в хорошем качестве Описание: Вернувшись на Землю, команда корабля «Энтерпрайз» обнаруживает, что деятельность и принципы их организации подорваны изнутри. ... 10 10 29
Info! Золотая раздача, скачанное не засчитывается.
Торрент: Зарегистрирован [2013-09-11 20:01] · скачан: 1 228 раз
Статус: √ проверено
Размер: 18.41 GB
Как cкачать? Как скачать Стартрек: Возмездие 3D через торрент | UTorrent

28-11-2019 20:33  

Отключить всю рекламу на сайте

25-12-2013 13:47 Стартрек: Возмездие 3D Скачать торрент  

спасибо большое!
забираю и отдаю до следующего года)
тяните на 100 метрах!pb.wtf



    Дорогой пользователь! Огромная просьба, поблагодарите релизера, оцените раздачу и оставьте свои комментарий, если Вы скачали Стартрек: Возмездие 3D через торрент бесплатно!
    Комментировать посты могут только пользователи прошедшие не сложную регистрацию
    Показать сообщения:    

    Стартрек: Возмездие 3D через торрент
    Скачать бесплатно Стартрек: Возмездие 3D
    Стартрек: Возмездие 3D скачать торрент
    Стартрек: Возмездие 3D смотреть онлайн
    Cкачать фильм Стартрек: Возмездие 3D бесплатно
    Стартрек: Возмездие 3D скачать торрент в хорошем качестве
    Стартрек: Возмездие 3D смотреть онлайн бесплатно в хорошем качестве


    Вы не можете начинать темы
    Вы не можете отвечать на сообщения
    Вы не можете редактировать свои сообщения
    Вы не можете удалять свои сообщения
    Вы не можете голосовать в опросах
    Вы не можете прикреплять файлы к сообщениям
    Вы можете скачивать файлы