Достать ножи: Стеклянная луковица

MVO

Добыча

Дубляж

Уэнсдэй

1 сезон

Тор

Дубляж

13 клиническая

1 сезон

Жестокая ночь

MVO

Одни из нас

1 сезон

Deluxe

pack

Рекомендуем

30

Пиратка

ВАЖНО

ВАЖНО

Ghostwire

Пиратка

jed

RePack

nioh2

RePack

RDR2

RePack

NEED FOR SPEED™ PAYBACK

RePack

скачать торрент

Кинопоиск HD

Острые козырьки 6 сезон

6 сезон

FAR CRY 6

RePack

скачать торрент

Лицензия

скачать торрент

MVO

1

1 сезон

скачать торрент

1 сезон

скачать торрент

Лицензия

  

Queen завоевывает Монреаль / Queen: Rock Montreal & Live Aid (Сол Свимер) [1981 г., Классический рок, Хард-рок, BDRip]

Queen завоевывает Монреаль через торрент pb.wtf

Размер: 1.46 GB | Добавлен: 9 лет 1 мес. назад | Торрент скачан:60 раз
| Скачать | Поддержите нас   

29-12-2013 02:51 Queen завоевывает Монреаль Скачать торрент  

Queen завоевывает Монреаль / Queen: Rock Montreal & Live Aid Год выпуска: 1981
Страна: США Студия: Eagle Rock Entertainment
Жанр: Классический рок, Хард-рок,
Продолжительность: 01:35:08
Режиссер: Сол Свимер

Премьера в мире: 01.01.2007
В ролях: Фредди Меркьюри, Брайан Мэй, Роджер Тейлор, Джон ДиконОписание: Живой концерт Queen в Монреале в 1981 году. Изначально название фильма было "We Will Rock You" и с этим названием фильм был показан на Каннском кинофестивале в мае 1983 года. После был издан в Северной Америке (в сентябре 1984 г.) и, стал первым коммерческим фильмом (концертом) группы Queen. Для издания на Blu-Ray фильм был оцифрован и восстановлен с оригинальной 35 миллиметровой пленки.
]
01. Intro
02. We Will Rock You (fast)
03. Let Me Entertain You
04. Play The Game
05. Somebody To Love
06. Killer Queen
07. I'm In Love With My Car
08. Get Down Make Love
09. Save Me
10. Now I'm Here
11. Dragon Attack
12. Now I'm Here (reprise)
13. Love Of My Life
14. Under Pressure
15. Keep Yourself Alive
16. Drum & Timpani Solo
17. Guitar Solo
18. Crazy Little Thing Called Love
19. Jailhouse Rock
20. Bohemian Rhapsody
21. Tie Your Mother Down
22. Another One Bites The Dust
23. Sheer Heart Attack
24. We Will Rock You
25. We Are The Champions
26. God Save The Queen
Качество: BDRip
Формат: AVI
Видео кодек: XviD
Аудио кодек: AC3
Видео: XviD, build 50 codec, 1736 kbps, 0.25 bit/pixel , 720 x 400, 1.80:1, 23.976 fps
Аудио#1: AC3 Dolby Digital, 6 Ch





I:a1Queen-Rock.Montreal.1981.BDRip.XviD.AC3.-HQ-ViDEO.avi
General
Complete name : I:a1Queen-Rock.Montreal.1981.BDRip.XviD.AC3.-HQ-ViDEO.avi
Format : AVI
Format/Info : Audio Video Interleave
File size : 1.46 GiB
Duration : 1h 35mn
Overall bit rate : 2 194 Kbps
Movie name : Queen / Queen Rock Montreal/Live Aid 1981 (2007)
Director : SENATOR (BDRip 720)
Writing application : VirtualDubMod 1.5.10.2 (build 2540/release)
Copyright : HQ-ViDEO (www.hq-video.ru)
Comment : 13.05.2009
Video #0
ID : 0
Format : MPEG-4 Visual
Format profile : Advanced [email protected]
Format settings, BVOP : 2
Format settings, QPel : No
Format settings, GMC : No warppoints
Format settings, Matrix : Default (MPEG)
Codec ID : XVID
Codec ID/Hint : XviD
Duration : 1h 35mn
Bit rate : 1 737 Kbps
Width : 720 pixels
Height : 400 pixels
Display aspect ratio : 16:9
Original display aspect ratio : 16:9
Frame rate : 23.976 fps
Color space : YUV
Chroma subsampling : 4:2:0
Bit depth : 8 bits
Scan type : Progressive
Compression mode : Lossy
Bits/(Pixel*Frame) : 0.251
Stream size : 1.15 GiB (79%)
Writing library : XviD 1.2.1 (UTC 2008-12-04)
Audio #1
ID : 1
Format : AC-3
Format/Info : Audio Coding 3
Mode extension : CM (complete main)
Format settings, Endianness : Big
Codec ID : 2000
Duration : 1h 35mn
Bit rate mode : Constant
Bit rate : 448 Kbps
Channel(s) : 6 channels
Channel positions : Front: L C R, Side: L R, LFE
Sampling rate : 48.0 KHz
Bit depth : 16 bits
Compression mode : Lossy
Stream size : 305 MiB (20%)
Alignment : Split accross interleaves
Interleave, duration : 42 ms (1.00 video frame)
Interleave, preload duration : 500 ms




Скачать Queen завоевывает Монреаль через торрент http://i60.fastpic.ru/big/2013/1229/61/de79c1f4d1537f29ff24846c09fa5561.jpg Скачать, смотреть онлайн Queen завоевывает Монреаль бесплантно в хорошем качестве Описание: Живой концерт Queen в Монреале в 1981 году. Изначально название фильма было "We Will Rock You" и с этим названием фильм был ... 10 10 10
Info! Золотая раздача, скачанное не засчитывается.
Торрент: Зарегистрирован [2013-12-29 02:51] · скачан: 60 раз
Статус: √ проверено
Размер: 1.46 GB
Как cкачать? Как скачать Queen завоевывает Монреаль через торрент | UTorrent

28-11-2019 20:33  


Отключить вcю реклaмy на сайте, в т.ч. и в плеере онлайн просмотра!

    Дорогой пользователь! Огромная просьба, поблагодарите релизера, оцените раздачу и оставьте свои комментарий, если Вы скачали Queen завоевывает Монреаль через торрент бесплатно!!
    Комментировать посты могут только пользователи прошедшие не сложную регистрацию
    Показать сообщения:    


    Queen завоевывает Монреаль через торрент
    Скачать бесплатно Queen завоевывает Монреаль
    Queen завоевывает Монреаль скачать торрент
    Queen завоевывает Монреаль смотреть онлайн
    Cкачать фильм Queen завоевывает Монреаль бесплатно
    Queen завоевывает Монреаль скачать торрент в хорошем качестве
    Queen завоевывает Монреаль смотреть онлайн бесплатно в хорошем качестве
    Вы не можете начинать темы
    Вы не можете отвечать на сообщения
    Вы не можете редактировать свои сообщения
    Вы не можете удалять свои сообщения
    Вы не можете голосовать в опросах
    Вы не можете прикреплять файлы к сообщениям
    Вы можете скачивать файлы
    Queen завоевывает Монреаль / Queen: Rock Montreal & Live Aid [1981 г., Классический рок, Хард-рок, BDRip] смотреть онлайн, скачать торрент picoco.icu