Достать ножи: Стеклянная луковица

MVO

Добыча

Дубляж

Уэнсдэй

1 сезон

Тор

Дубляж

13 клиническая

1 сезон

Жестокая ночь

MVO

Одни из нас

1 сезон

Deluxe

pack

Рекомендуем

30

Пиратка

ВАЖНО

ВАЖНО

Ghostwire

Пиратка

jed

RePack

nioh2

RePack

RDR2

RePack

NEED FOR SPEED™ PAYBACK

RePack

скачать торрент

Кинопоиск HD

Острые козырьки 6 сезон

6 сезон

FAR CRY 6

RePack

скачать торрент

Лицензия

скачать торрент

MVO

1

1 сезон

скачать торрент

1 сезон

скачать торрент

Лицензия

  

Queen: Hungarian Rhapsody - Live In Budapest [1986 г., Концертное видео, BDRip]

Queen: Hungarian Rhapsody - Live In Budapest через торрент pb.wtf

Размер: 4.24 GB | Добавлен: 9 лет 1 мес. назад | Торрент скачан:142 раза
| Скачать | Поддержите нас   

31-12-2013 18:09 Queen: Hungarian Rhapsody - Live In Budapest Скачать торрент  

Queen: Hungarian Rhapsody - Live In Budapest
Год выпуска: 1986-2012
Страна: UK
Жанр: Концертное видео,
Продолжительность: 01:31:11

Описание: Hungarian Rhapsody: Live In Budapest' QUEEN. Снятый в 1986 году, концерт прошел полное восстановление и переведен в высокое разрешение и снабжен 5.1 Surround Sound - так что теперь у всех будет возможность насладиться этим великолепием в полноценном HD.В DVD и Blu-ray также войдет 25-минутный документальный фильм "A Magic Year", рассказывающий о том, как группа прошла свой путь от выступления 13 июля 1985 года на Live Aid London до эпического шоу в Будапеште. Используя съемки с репетиций, интервью, ряд из которых ранее не был опубликован, этот фильм был специально создан для этого релиза."Мы рады, что у поклонников QUEEN по всему миру наконец-то появится возможность пережить эти великолепные для группы моменты" - говорят Brian May и Roger Taylor. "Мы знали, что концерт в Будапеште будет инновационным, но не совсем ожидали, что он будет столь историческим событием. Концерт смотрится на экране просто фантастически после всех процедур ремастеринга и документальный фильм отлично показывает все события - это было по-настоящему экстраординарное время в истории коллектива".


Качество: BDRip
Формат: MKV
Видео кодек: H.264
Аудио кодек: AC3
01. One Vision
02. Tie Your Mother Down
03. In the Lap of the Gods. . .Revisited
04. Seven Seas of Rhye
05. Tear It Up
06. A Kind of Magic
07. Under Pressure
08. Who Wants to Live Forever
09. I Want to Break Free
10. Guitar Solo
11. Now I'm Here
12. Love of My Life
13. Tavaszi Szet Vizet Araszt
14. Is This the World We Created. . .?
15. Tutti Frutti
16. Bohemian Rhapsody
17. Hammer to Fall
18. Crazy Little Thing Called Love
19. Radio Ga Ga
20. We Will Rock You
21. Friends Will Be Friends
22. We Are the Champions
23. God Save the Queen




I:a1Queen.Hungarian.Rhapsody.Live.In.Budapest.1986.BDRip.720p.drony.mkv
General
Unique ID : 225224769659658862698124464408152513771 (0xA970B67AC0272E31B8AD6FDD92841CEB)
Complete name : I:a1Queen.Hungarian.Rhapsody.Live.In.Budapest.1986.BDRip.720p.drony.mkv
Format : Matroska
Format version : Version 2
File size : 4.24 GiB
Duration : 1h 31mn
Overall bit rate mode : Variable
Overall bit rate : 6 663 Kbps
Encoded date : UTC 2012-11-10 19:03:03
Writing application : mkvmerge v5.8.0 ('No Sleep / Pillow') built on Sep 2 2012 15:37:04
Writing library : libebml v1.2.3 + libmatroska v1.3.0
Video #1
ID : 1
Format : AVC
Format/Info : Advanced Video Codec
Format profile : [email protected]
Format settings, CABAC : Yes
Format settings, ReFrames : 3 frames
Codec ID : V_MPEG4/ISO/AVC
Duration : 1h 31mn
Bit rate mode : Variable
Bit rate : 4 709 Kbps
Maximum bit rate : 15.0 Mbps
Width : 1 280 pixels
Height : 720 pixels
Display aspect ratio : 16:9
Frame rate mode : Constant
Frame rate : 24.000 fps
Color space : YUV
Chroma subsampling : 4:2:0
Bit depth : 8 bits
Scan type : Progressive
Bits/(Pixel*Frame) : 0.213
Stream size : 2.91 GiB (69%)
Title : drony
Writing library : x264 core 128 r2216 198a7ea
Encoding settings : cabac=1 / ref=4 / deblock=1:-1:-1 / analyse=0x3:0x113 / me=hex / subme=7 / psy=1 / psy_rd=1.00:0.15 / mixed_ref=1 / me_range=16 / chroma_me=1 / trellis=1 / 8x8dct=1 / cqm=0 / deadzone=21,11 / fast_pskip=1 / chroma_qp_offset=-3 / threads=3 / lookahead_threads=1 / sliced_threads=0 / slices=4 / nr=0 / decimate=1 / interlaced=0 / bluray_compat=1 / constrained_intra=0 / bframes=3 / b_pyramid=1 / b_adapt=1 / b_bias=0 / direct=1 / weightb=1 / open_gop=1 / weightp=0 / keyint=23 / keyint_min=1 / scenecut=40 / intra_refresh=0 / rc_lookahead=24 / rc=2pass / mbtree=1 / bitrate=4709 / ratetol=1.0 / qcomp=0.60 / qpmin=0 / qpmax=69 / qpstep=4 / cplxblur=20.0 / qblur=0.5 / vbv_maxrate=15000 / vbv_bufsize=15000 / nal_hrd=vbr / ip_ratio=1.40 / aq=1:1.00
Language : English
Default : Yes
Forced : No
Color primaries : BT.709
Transfer characteristics : BT.709
Matrix coefficients : BT.709
Audio #2
ID : 2
Format : DTS
Format/Info : Digital Theater Systems
Mode : 16
Format settings, Endianness : Big
Codec ID : A_DTS
Duration : 1h 31mn
Bit rate mode : Constant
Bit rate : 1 509 Kbps
Channel(s) : 6 channels
Channel positions : Front: L C R, Side: L R, LFE
Sampling rate : 48.0 KHz
Bit depth : 24 bits
Compression mode : Lossy
Stream size : 984 MiB (23%)
Title : DTS, 5.1, 1510 kbps, 24bits
Language : English
Default : Yes
Forced : No
Audio #3
ID : 3
Format : AC-3
Format/Info : Audio Coding 3
Mode extension : CM (complete main)
Format settings, Endianness : Big
Codec ID : A_AC3
Duration : 1h 31mn
Bit rate mode : Constant
Bit rate : 448 Kbps
Channel(s) : 2 channels
Channel positions : Front: L R
Sampling rate : 48.0 KHz
Bit depth : 16 bits
Compression mode : Lossy
Stream size : 292 MiB (7%)
Title : AC3, 2ch, 448 kbps, 48 kHz
Language : English
Default : No
Forced : No
Text #4
ID : 4
Format : PGS
Muxing mode : zlib
Codec ID : S_HDMV/PGS
Codec ID/Info : The same subtitle format used on BDs/HD-DVDs
Title : SUP
Language : English
Default : Yes
Forced : No




Скачать Queen: Hungarian Rhapsody - Live In Budapest через торрент http://i59.fastpic.ru/big/2013/1231/db/c0a6f941e4a173a4dc1c2f672a62c3db.jpg Скачать, смотреть онлайн Queen: Hungarian Rhapsody - Live In Budapest [1986 г., Концертное видео, BDRip] бесплантно в хорошем качестве Описание: Hungarian Rhapsody: Live In Budapest' QUEEN. Снятый в 1986 году, концерт прошел полное восстановление и переведен в высокое ... 10 10 16
Info! Золотая раздача, скачанное не засчитывается.
Торрент: Зарегистрирован [2013-12-31 18:09] · скачан: 142 раз
Статус: √ проверено
Размер: 4.24 GB
Как cкачать? Как скачать Queen: Hungarian Rhapsody - Live In Budapest через торрент | UTorrent

% Раздел Тема Автор DL S | L
Концерты [ 15.45 GB ] Queen: Hungarian Rhapsody - Live In Budapest [1986, Rock, BDRip 1080p / 60 FPS, Оригинальный | | 1080p / 60 FPS, Оригинальный Tiberiumsun69 Скачать
1 | 0

28-11-2019 20:33  


Отключить вcю реклaмy на сайте, в т.ч. и в плеере онлайн просмотра!

    Дорогой пользователь! Огромная просьба, поблагодарите релизера, оцените раздачу и оставьте свои комментарий, если Вы скачали Queen: Hungarian Rhapsody - Live In Budapest через торрент бесплатно!!
    Комментировать посты могут только пользователи прошедшие не сложную регистрацию
    Показать сообщения:    


    Queen: Hungarian Rhapsody - Live In Budapest через торрент
    Скачать бесплатно Queen: Hungarian Rhapsody - Live In Budapest
    Queen: Hungarian Rhapsody - Live In Budapest скачать торрент
    Queen: Hungarian Rhapsody - Live In Budapest смотреть онлайн
    Cкачать фильм Queen: Hungarian Rhapsody - Live In Budapest бесплатно
    Queen: Hungarian Rhapsody - Live In Budapest скачать торрент в хорошем качестве
    Queen: Hungarian Rhapsody - Live In Budapest смотреть онлайн бесплатно в хорошем качестве
    Вы не можете начинать темы
    Вы не можете отвечать на сообщения
    Вы не можете редактировать свои сообщения
    Вы не можете удалять свои сообщения
    Вы не можете голосовать в опросах
    Вы не можете прикреплять файлы к сообщениям
    Вы можете скачивать файлы
    Queen: Hungarian Rhapsody - Live In Budapest [1986 г., Концертное видео, BDRip] смотреть онлайн, скачать торрент picoco.icu