Ссылка на приватное зеркало нашего сайта всего за 1$. Внимание количество ограничено!!!

2 сезон

iTunes

1 сезон

1

2 сезон

2 сезон

iTunes

1 сезон

RePack

30

Ultimate

ВАЖНО

ИГРА 18+

pack

RePack

MK11
pack

Забери бонус

RePack

jed

!!Акция!!

Alien_Rage

RePack

fifa19

RePack

Assassins Creed: Odyssey

RePack

NEED FOR SPEED™ PAYBACK

4 сезон

9 сезон

Бесстыжие 9 сезон

Все сериалы

все сериалы на PB.wtf

RePack

FAR CRY 5
  

Неправильные копы / Wrong Cops (Квентин Дюпьё) [2013 г., комедия, криминал, DVDRip, Любительский одноголосый] pb.wtf

Неправильные копы через торрент pb.wtf

Размер: 1.37 GB | Добавлен: 6 лет 11 мес. назад | Торрент скачан:391 раз
Скачать  

01-01-2014 15:42 Неправильные копы Скачать торрент  

Неправильные копы / Wrong Cops
Год выпуска: 2013
Страна: США / Realitism Films, CTB Film Company, Orange Sky
Жанр: комедия, криминал
Продолжительность: 01:22:10
Перевод: Любительский одноголосый (den904)

Режиссер: Квентин Дюпьё



В ролях: Марк Бёрнэм, Эрик Жюдор, Стив Литтл, Мэрилин Мэнсон, Грейс Забриски, Арден Майрин, Эрик Верхейм, Изабелла Пальмиери, Дэниэл Куинн, Хиллари Так,

Описание: Несколько не очень хороших полицейских пытаются избавиться от тела человека, которого один из них случайно застрелил.

Качество: DVDRip
Формат: AVI
Видео кодек: XviD
Аудио кодек: AC3
Видео: 720x304 (2.37:1), 29.970 fps, XviD build 50 ~2186 kbps avg, 0.33 bit/pixel
Аудио: 48 kHz, AC3 Dolby Digital, 2/0 (L,R) ch, ~192 kbps


Общее
Полное имя : G:киноНеправильные копы.2013.DVDRip.L1.avi
Формат : AVI
Формат/Информация : Audio Video Interleave
Размер файла : 1,37 Гбайт
Продолжительность : 1 ч. 22 м.
Общий поток : 2390 Кбит/сек
Название фильма : Неправильные копы.2013.DVDRip.L1.avi
Режиссёр : by coc900
Программа кодирования : VirtualDubMod 1.5.10.3 | www.virtualdub-fr.org || (build 2550/release)

Видео
Идентификатор : 0
Формат : MPEG-4 Visual
Профиль формата : Advanced Simple@L5
Параметр BVOP формата : 2
Параметр QPel формата : Нет
Параметр GMC формата : Без точки перехода
Параметр матрицы формата : Default (H.263)
Идентификатор кодека : XVID
Идентификатор кодека/Подсказка : XviD
Продолжительность : 1 ч. 22 м.
Битрейт : 2186 Кбит/сек
Ширина : 720 пикс.
Высота : 304 пикс.
Соотношение сторон : 2,35:1
Частота кадров : 29,970 кадр/сек
Цветовое пространство : YUV
Подвыборка цветности : 4:2:0
Битовая глубина : 8 бит
Тип развёртки : Прогрессивная
Метод сжатия : С потерями
Бит/(Пиксели*Кадры) : 0.333
Размер потока : 1,25 Гбайт (91%)
Библиотека кодирования : XviD 1.2.1 (UTC 2008-12-04)

Аудио
Идентификатор : 1
Формат : AC-3
Формат/Информация : Audio Coding 3
Расширение режима : CM (complete main)
Идентификатор кодека : 2000
Продолжительность : 1 ч. 22 м.
Вид битрейта : Постоянный
Битрейт : 192 Кбит/сек
Канал(ы) : 2 канала(ов)
Расположение каналов : Front: L R
Частота : 48,0 КГц
Битовая глубина : 16 бит
Метод сжатия : С потерями
Размер потока : 113 Мбайт (8%)
Выравнивание : Разделение по промежуткам
Продолжительность промежутка : 33 мс. (1,00 видеокадр)
Время предзагрузки промежутка : 500 ms

pb.wtf



Скачать Неправильные копы через торрент http://pic.kartinco.top/images/6/j4ucw.jpg Скачать фильм Неправильные копы через торрент бесплантно в хорошем качестве Описание: Несколько не очень хороших полицейских пытаются избавиться от тела человека, которого один из них случайно ... 8.9 10 15
Info! Золотая раздача, скачанное не засчитывается.
Торрент: Зарегистрирован [2014-01-01 15:42] · скачан: 391 раз
Статус: T временная
Размер: 1.37 GB
Как cкачать? Как скачать Неправильные копы через торрент | qTorrent

% Раздел Тема Автор DL S | L
T Фильмы 2013 [DVDrip, WEB-DLRip, HDrip] [ 1.37 GB ] Неправильные копы / Wrong Cops [2013 Россия WEB-DLRip] MVO GEKADOL Скачать
1 | 1
T Фильмы (WEB-DL 720p, 1080p) [ 2.75 GB ] Неправильные копы / Wrong Cops [2013 Россия WEB-DL 720p] MVO GEKADOL Скачать
1 | 1

28-11-2019 20:33  

Отключить всю рекламу на сайте

01-01-2014 16:29 Неправильные копы Скачать торрент  

Ссылка Кинопоиска отправляет на IMDB.pb.wtf



04-01-2014 02:27 Неправильные копы Скачать торрент  

Кино про дегенератов, и для дегенератов!pb.wtf



07-01-2014 21:17 Неправильные копы Скачать торрент  

+1 да, так ёмко и глубоко отписал, даже добавить нечего, на все 100% согласенpb.wtf



23-02-2014 12:03 Неправильные копы Скачать торрент  

лучшая комедия,которую смотрел.не смешно будет только занудам.pb.wtf



15-05-2014 20:58 Неправильные копы Скачать торрент  

:sarcastic_blum: :sarcastic_blum: классное киноpb.wtf



    Дорогой пользователь! Огромная просьба, поблагодарите релизера, оцените раздачу и оставьте свои комментарий, если Вы скачали Неправильные копы через торрент бесплатно! Внесите свою лепту в развитие PiratBit!
    Комментировать посты могут только пользователи прошедшие не сложную регистрацию
    Показать сообщения:    

    Неправильные копы через торрент
    Скачать бесплатно Неправильные копы
    Неправильные копы скачать торрент
    Неправильные копы смотреть онлайн
    Cкачать фильм Неправильные копы бесплатно
    Неправильные копы скачать торрент в хорошем качестве
    Неправильные копы смотреть онлайн бесплатно в хорошем качестве


    Вы не можете начинать темы
    Вы не можете отвечать на сообщения
    Вы не можете редактировать свои сообщения
    Вы не можете удалять свои сообщения
    Вы не можете голосовать в опросах
    Вы не можете прикреплять файлы к сообщениям
    Вы можете скачивать файлы