Доктор Стрэндж

Лицензия

Добыча

Дубляж

Уэнсдэй

1 сезон

Тор

Дубляж

В эфире

Дубляж

Там, где раки поют

MVO

Властелин колец

1 сезон

Deluxe

pack

Рекомендуем

30

Пиратка

ВАЖНО

ВАЖНО

Ghostwire

Пиратка

jed

RePack

nioh2

RePack

RDR2

RePack

NEED FOR SPEED™ PAYBACK

RePack

скачать торрент

Кинопоиск HD

Острые козырьки 6 сезон

6 сезон

FAR CRY 6

RePack

скачать торрент

Лицензия

скачать торрент

MVO

1

1 сезон

скачать торрент

1 сезон

скачать торрент

Лицензия

  

Кипелов - X лет, Крокус Сити Холл (2013) DVD-9(х2) [2013 г., HeavyMetal Rock, DVD9]

Кипелов - X лет, Крокус Сити Холл через торрент pb.wtf

Размер: 13.3 GB | Добавлен: 8 лет 10 мес. назад | Торрент скачан:73 раза
| Скачать   

23-12-2013 08:21 Кипелов - X лет, Крокус Сити Холл Скачать торрент  

Кипелов - X лет Крокус Сити Холл (2013) DVD-9(х2)
Год выпуска: 2013
Страна: Россия
Жанр: HeavyMetal Rock,
Продолжительность:02:51:49
DVD 1:
01. Интро
02. Жить вопреки
03. Ещё повоюем
04. Вавилон
05. Наваждение
06. Я здесь
07. Гламурная птица
08. Влacть огня
09. Дыхание последней любви
10. Дыхание тьмы
11. Castlevania
12. Мёртвая зона
13. Потерянный рай
14. Грязь
15. Не сейчас
16. Реки времён
17. Ой, то не вечер
18. Призрачный взвод
19. Я свободен!
20. Попурри (Встань, страх преодолей; Тореро; Воля и разум)

DVD 2:
1. Видео-версия "Реки времен"
2. Бонусы.
Качество: DVD9
Формат: DVD Video
Видео кодек: MPEG2
Аудио кодек: AC3 PCM
Видео: MPEG, 720*576, 16:9, 6500 kbps, 25 fps
Аудио#1: AC3, 448 kbps, 48 kHz, 6 ch
Аудио#2: PCM, 1536 kbps, 48 kHz, 2 ch





General
Complete name : C:UsersEddyVideosТорентыKIPELOV_X_LETKIPELOV_DVD_1VIDEO_TSVTS_10_1.VOB
Format : MPEG-PS
File size : 1 024 MiB
Duration : 16mn 33s
Overall bit rate : 8 646 Kbps

Video
ID : 224 (0xE0)
Format : MPEG Video
Format version : Version 2
Format profile : [email protected]
Format settings, BVOP : Yes
Format settings, Matrix : Custom
Format settings, GOP : M=3, N=12
Duration : 16mn 33s
Bit rate : 6 500 Kbps
Width : 720 pixels
Height : 576 pixels
Display aspect ratio : 16:9
Frame rate : 25.000 fps
Standard : PAL
Color space : YUV
Chroma subsampling : 4:2:0
Bit depth : 8 bits
Scan type : Interlaced
Scan order : Top Field First
Compression mode : Lossy
Bits/(Pixel*Frame) : 0.627
Stream size : 769 MiB (75%)
Color primaries : BT.601 PAL
Transfer characteristics : BT.470 System B, BT.470 System G
Matrix coefficients : BT.601

Audio #1
ID : 189 (0xBD)-129 (0x81)
Format : AC-3
Format/Info : Audio Coding 3
Mode extension : CM (complete main)
Format settings, Endianness : Big
Muxing mode : DVD-Video
Duration : 16mn 33s
Bit rate mode : Constant
Bit rate : 448 Kbps
Channel(s) : 6 channels
Channel positions : Front: L C R, Side: L R, LFE
Sampling rate : 48.0 KHz
Bit depth : 16 bits
Compression mode : Lossy
Stream size : 53.0 MiB (5%)

Audio #2
ID : 189 (0xBD)-160 (0xA0)
Format : PCM
Format settings, Endianness : Big
Format settings, Sign : Signed
Muxing mode : DVD-Video
Duration : 16mn 33s
Bit rate mode : Constant
Bit rate : 1 536 Kbps
Channel(s) : 2 channels
Sampling rate : 48.0 KHz
Bit depth : 16 bits
Stream size : 182 MiB (18%)

Menu




Скачать Кипелов - X лет, Крокус Сити Холл через торрент https://pic1.kartinco.top/images/61/kfwdy.jpg Скачать, смотреть онлайн Кипелов - X лет, Крокус Сити Холл бесплантно в хорошем качестве Треклист:DVD 1: Интро Жить вопреки Ещё повоюем Вавилон Наваждение Я здесь Гламурная птица08. Влacть огня09. Дыхание ... 9.9 10 22
Info! Золотая раздача, скачанное не засчитывается.
Торрент: Зарегистрирован [2014-01-24 07:16] · скачан: 73 раз
Статус: √ проверено
Размер: 13.3 GB
Как cкачать? Как скачать Кипелов - X лет, Крокус Сити Холл через торрент | UTorrent

28-11-2019 20:33  


Отключить вcю реклaмy на сайте, в т.ч. и в плеере онлайн просмотра!

24-01-2014 08:01 Кипелов - X лет, Крокус Сити Холл Скачать торрент  

За дядю Валеру отдельно спасибо))



    Дорогой пользователь! Огромная просьба, поблагодарите релизера, оцените раздачу и оставьте свои комментарий, если Вы скачали Кипелов - X лет, Крокус Сити Холл через торрент бесплатно!!
    Комментировать посты могут только пользователи прошедшие не сложную регистрацию
    Показать сообщения:    


    Кипелов - X лет, Крокус Сити Холл через торрент
    Скачать бесплатно Кипелов - X лет, Крокус Сити Холл
    Кипелов - X лет, Крокус Сити Холл скачать торрент
    Кипелов - X лет, Крокус Сити Холл смотреть онлайн
    Cкачать фильм Кипелов - X лет, Крокус Сити Холл бесплатно
    Кипелов - X лет, Крокус Сити Холл скачать торрент в хорошем качестве
    Кипелов - X лет, Крокус Сити Холл смотреть онлайн бесплатно в хорошем качестве
    Вы не можете начинать темы
    Вы не можете отвечать на сообщения
    Вы не можете редактировать свои сообщения
    Вы не можете удалять свои сообщения
    Вы не можете голосовать в опросах
    Вы не можете прикреплять файлы к сообщениям
    Вы можете скачивать файлы
    Кипелов - X лет, Крокус Сити Холл DVD-9 [2013 г., HeavyMetal Rock, DVD9] смотреть онлайн, скачать торрент picoco.icu