Всегда рабочее зеркало без VPN и Proxy просто перед .vidak.icu напиши любое слово или цифру, Пример http://tppr.vidak.icu

MVO

2 сезон

1 сезон

1

1 сезон

iTunes

2 сезон

13

1 сезон

Deluxe

pack

Рекомендуем

Пиратка

30

ВАЖНО

RePack

MK11

RePack

jed

RePack

fifa19

RePack

RDR2

RePack

NEED FOR SPEED™ PAYBACK

Кинопоиск HD

6 сезон

 Острые козырьки 6 сезон

Все сериалы

все сериалы на PB.wtf

RePack

FAR CRY 5

Anonymous, нам критически не хватает 5601 руб. на оплату серверов и переферии за Апрель, помоги нам пожалуйста, вся надежда только на тебя. В благодарность мы отключим тебе всю рекламу на сайте!

×
  
Magnet ссылка

Стена / Die Wand (Юлиан Пельслер) [2012 г., Фэнтези, драма, BDRip 1080p, Авторский (Oдноголосый, А.Дольский)] pb.wtf

Стена через торрент pb.wtf

Размер: 10.94 GB | Добавлен: 8 лет 3 мес. назад | Торрент скачан:40 раз
Смотреть онлайн Стена | Скачать    Ребята, помогите собрать деньги на оплату серверов!!!

27-01-2014 03:39 Стена Скачать торрент  

Стена / Die Wand

Год выпуска: 2012
Страна: Австрия, Германия
Жанр: Фэнтези, драма
Продолжительность: 01:47:55
Перевод: Авторский (Oдноголосый, А.Дольский)
Субтитры: English.

Режиссер: Юлиан Пельслер
Продюссер: Василики Блесер, Райнер Кёльмель, Антонин Свобода
Сценарий: Marlen Haushofer, Юлиан Пельслер
Премьера в мире: 12 февраля 2012

IMDB 6.70 (1787)


В ролях: Мартина Гедек, Вольфганг М. Бауэр, Ульрике Баймпольд, Карлхайнц Хакль, Ганс-Михаэль Реберг

Описание: В доме, затерянном в горах, женщина с грубо остриженными волосами, синевой вокруг глаз и скулами, обострившимися от месяцев скудной жизни и тяжелого физического труда, ведёт дневник — на оборотной стороне истлевших, потерявших смысл календарей, под надсадное карканье ноябрьских ворон. Не ради удовольствия от письма — чтобы выжить и спастись от безумия. С ней случилось невероятное — она приехала в этот горный дом с друзьями, пожилой парой, в солнечный майский день, чтобы на следующее утро, обеспокоившись исчезновением ушедших на прогулку стариков, обнаружить, что покинуть вершину горы уже невозможно: весь прочий мир отделен от неё невидимой, но непроницаемой стеной. Так женщина осталась одна, в компании домашнего пса, приблудной коровы и пушистых котят, таких неуместных на лоне дикой природы. Она осознала, что недостаточно юна и безрассудна для самоубийства, значит, придётся выживать, чего бы это ни стоило...

Качество: BDRip 1080p
Формат: MKV
Видео кодек: AVC
Аудио кодек: DTS
Видео: AVC, ~11500 kbps /1920х816 / 23,976 fps / 2,35:1, (Bits/Pixel): 0.306
Аудио#1: Russian: DTS, 6 ch, 1509 kbps, 48 kHz, 24-bit – закадровый (одноголосый, А.Дольский);
Аудио#2: German: DTS, 6 ch, 1509 kbps, 48 kHz, 24-bit.
General
Unique ID : 188773712511841882939197083336963217678 (0x8E047E9BBE8E836696F8A19D32E3590E)
Complete name : /home/sb753/files/Die Wand.The Wall.2012.BDRip.1080p.mkv
Format : Matroska
Format version : Version 2
File size : 10.9 GiB
Duration : 1h 47mn
Overall bit rate : 14.5 Mbps
Movie name : ????? / Die Wand / The Wall.2012 HDTracker@MeGUI
Encoded date : UTC 2014-01-26 13:43:25
Writing application : mkvmerge v3.4.0 ('Rapunzel') ?????? ?? May 15 2010 09:38:20
Writing library : libebml v0.8.0 + libmatroska v0.9.0

Video
ID : 1
Format : AVC
Format/Info : Advanced Video Codec
Format profile : High@L4.1
Format settings, CABAC : Yes
Format settings, ReFrames : 4 frames
Codec ID : V_MPEG4/ISO/AVC
Duration : 1h 47mn
Bit rate : 11.5 Mbps
Width : 1 920 pixels
Height : 816 pixels
Display aspect ratio : 2.35:1
Frame rate : 23.976 fps
Color space : YUV
Chroma subsampling : 4:2:0
Bit depth : 8 bits
Scan type : Progressive
Bits/(Pixel*Frame) : 0.306
Stream size : 8.45 GiB (77%)
Title : MeGUI
Writing library : x264 core 140 r2377 1ca7bb9
Encoding settings : cabac=1 / ref=4 / deblock=1:-3:-3 / analyse=0x3:0x133 / me=umh / subme=11 / psy=1 / psy_rd=1.05:0.00 / mixed_ref=1 / me_range=48 / chroma_me=1 / trellis=2 / 8x8dct=1 / cqm=0 / deadzone=21,11 / fast_pskip=0 / chroma_qp_offset=-2 / threads=12 / lookahead_threads=2 / sliced_threads=0 / nr=0 / decimate=1 / interlaced=0 / bluray_compat=0 / constrained_intra=0 / bframes=9 / b_pyramid=2 / b_adapt=2 / b_bias=0 / direct=3 / weightb=0 / open_gop=0 / weightp=2 / keyint=240 / keyint_min=22 / scenecut=40 / intra_refresh=0 / rc_lookahead=60 / rc=2pass / mbtree=1 / bitrate=11500 / ratetol=1.0 / qcomp=0.70 / qpmin=0 / qpmax=69 / qpstep=4 / cplxblur=20.0 / qblur=0.5 / vbv_maxrate=50000 / vbv_bufsize=45000 / nal_hrd=none / filler=0 / ip_ratio=1.40 / aq=2:1.00
Language : English
Default : No
Forced : No

Audio #1
ID : 2
Format : DTS
Format/Info : Digital Theater Systems
Codec ID : A_DTS
Duration : 1h 47mn
Bit rate mode : Constant
Bit rate : 1 510 Kbps
Channel(s) : 6 channels
Channel positions : Front: L C R, Side: L R, LFE
Sampling rate : 48.0 KHz
Bit depth : 24 bits
Compression mode : Lossy
Stream size : 1.14 GiB (10%)
Title : DTS 5.1 AVO-?.????????
Language : Russian
Default : Yes
Forced : No

Audio #2
ID : 3
Format : DTS
Format/Info : Digital Theater Systems
Codec ID : A_DTS
Duration : 1h 47mn
Bit rate mode : Constant
Bit rate : 1 510 Kbps
Channel(s) : 6 channels
Channel positions : Front: L C R, Side: L R, LFE
Sampling rate : 48.0 KHz
Bit depth : 24 bits
Compression mode : Lossy
Stream size : 1.14 GiB (10%)
Title : DTS 5.1 Original
Language : German
Default : No
Forced : No

Text
ID : 4
Format : UTF-8
Codec ID : S_TEXT/UTF8
Codec ID/Info : UTF-8 Plain Text
Language : English
Default : No
Forced : No

Menu
00:00:00.000 : en:00:00:00.000
00:04:16.214 : en:00:04:16.214
00:15:05.404 : en:00:15:05.404
00:25:25.315 : en:00:25:25.315
00:34:56.428 : en:00:34:56.428
00:43:05.208 : en:00:43:05.208
00:51:58.615 : en:00:51:58.615
01:01:03.827 : en:01:01:03.827
01:10:28.391 : en:01:10:28.391
01:18:20.571 : en:01:18:20.571
01:27:32.247 : en:01:27:32.247
01:36:38.418 : en:01:36:38.418
pb.wtf



Скачать Стена через торрент http://i2.imageban.ru/out/2014/01/27/dfc1421ec5d8a2dc3b682d80d3ef2813.png Скачать, смотреть онлайн Стена бесплантно в хорошем качестве Описание: В доме, затерянном в горах, женщина с грубо остриженными волосами, синевой вокруг глаз и скулами, обострившимися от месяцев ... 10 10 7
Info! Золотая раздача, скачанное не засчитывается.
Торрент: Зарегистрирован [2014-01-27 03:39] · скачан: 40 раз
Статус: √ проверено
Размер: 10.94 GB
Как cкачать? Как скачать Стена через торрент | UTorrent

% Раздел Тема Автор DL S | L
Фильмы [HD 720p, 1080p] (Хороший звук DUB, MVO) [ 15.98 GB ] Головой о стену / Gegen die Wand [2004 BDRip 1080p by msltel] MVO msltel Скачать
1 | 0
Фильмы 2001-2005 [ 3.28 GB ] Головой о стену / Gegen die Wand [2004 BDRip by msltel] MVO msltel Скачать
1 | 0
Фильмы (Blu-ray, BD-Remux, HDDVD) [ 26.92 GB ] Женщина за стеной / Die Frau hinter der Wand [2013 BDRemux 1080p] DVO Ворон Скачать
1 | 0
T Фильмы 2013 (Звук TS, Cam, VO, DVO) [ 1.44 GB ] Женщина за стеной / Die Frau hinter der Wand [2013 HDRip Любительский двухголосый "den904 & DeadSno"] coc900 Скачать
1 | 0
Фильмы с авторской озвучкой [ 2.42 GB ] Стена / Die Wand [2011 Австрия Германия BDRip-AVCАвторский Любительский [Xixidok] KEYS Скачать
1 | 0

28-11-2019 20:33  

Отключить всю рекламу на сайте

27-01-2014 04:44 Стена Скачать торрент  

Жанр: Фэнтези, драма. но, я думаю, и попахивает не хилой меланхолией!!
смотреть на бабу говорящую сама с собой и собакой, как-то настораживает
люди как киношедевр?pb.wtf



    Дорогой пользователь! Огромная просьба, поблагодарите релизера, оцените раздачу и оставьте свои комментарий, если Вы скачали Стена через торрент бесплатно!
    Комментировать посты могут только пользователи прошедшие не сложную регистрацию
    Показать сообщения:    

    Стена через торрент
    Скачать бесплатно Стена
    Стена скачать торрент
    Стена смотреть онлайн
    Cкачать фильм Стена бесплатно
    Стена скачать торрент в хорошем качестве
    Стена смотреть онлайн бесплатно в хорошем качестве


    Вы не можете начинать темы
    Вы не можете отвечать на сообщения
    Вы не можете редактировать свои сообщения
    Вы не можете удалять свои сообщения
    Вы не можете голосовать в опросах
    Вы не можете прикреплять файлы к сообщениям
    Вы можете скачивать файлы