Всегда рабочее зеркало без VPN и Proxy просто перед .vidak.icu напиши любое слово или цифру, Пример http://p0e9.vidak.icu

Лицензия

MVO

1 сезон

1

1 сезон

iTunes

1 сезон

13

1 сезон

Deluxe

pack

Рекомендуем

Repack

30

ВАЖНО

RePack

MK11

RePack

jed

RePack

fifa19

RePack

RDR2

RePack

NEED FOR SPEED™ PAYBACK

Кинопоиск HD

6 сезон

 Острые козырьки 6 сезон

Все сериалы

все сериалы на PB.wtf

RePack

FAR CRY 5
  
Magnet ссылка

Вся правда о карибских пиратах / True Caribbean Pirates (Тим Прокоп) [2006 г., Документальный, научно-популярный, HDTVRip-AVC, DVO] от R.G. PiratFilms pb.wtf

Вся правда о карибских пиратах через торрент pb.wtf

Размер: 1.45 GB | Добавлен: 8 лет 6 мес. назад | Торрент скачан:208 раз
Смотреть онлайн Вся правда о карибских пиратах | Скачать    Ребята, помогите собрать деньги на оплату серверов!!!

06-02-2014 15:41 Вся правда о карибских пиратах Скачать торрент  

Вся правда о карибских пиратах / True Caribbean Pirates
Год выпуска: 2006
Страна: США
Жанр: Документальный, научно-популярный
Продолжительность: 01:25:47
Перевод: Профессиональный двухголосый

Режиссер: Тим Прокоп
Сценарий: Тим Прокоп
Премьера в мире: 7 июля 2006



Описание: Они - гроза морей. Самые кровожадные головорезы того времени. В XVII и XVIII веках карибские пираты захватили тысячи кораблей, ограбили десятки городов и поставили на карту свои жизни ради сокровищ, грабежа и разбоя. Они были у всех на устах и оставили свой страшный след в истории.



Семпл

Качество: HDTVRip-AVC
Формат: MKV
Видео кодек: AVC
Видео: AVC, 720x400 (16:9), 23.976 fps, 1 842 Kbps (0.267 bit/pixel)
Аудио#1: AC-3, 48.0 KHz, 2 ch, 192 Kbps, CBR (Russian)
Аудио#2: AC-3, 48.0 KHz, 6 ch, 384 Kbps, CBR (English)
x264 [info]: frame I:1589 Avg QP:15.78 size: 36397
x264 [info]: frame P:35804 Avg QP:18.34 size: 17119
x264 [info]: frame B:86014 Avg QP:20.34 size: 5980
x264 [info]: consecutive B-frames: 3.4% 5.2% 17.6% 73.8%
x264 [info]: mb I I16..4: 4.4% 76.1% 19.5%
x264 [info]: mb P I16..4: 2.5% 15.3% 2.2% P16..4: 41.5% 21.4% 13.7% 0.9% 0.3% skip: 2.2%
x264 [info]: mb B I16..4: 0.2% 1.6% 0.3% B16..8: 40.3% 13.7% 3.3% direct:11.3% skip:29.4% L0:38.9% L1:44.7% BI:16.4%
x264 [info]: 8x8 transform intra:76.7% inter:65.5%
x264 [info]: direct mvs spatial:96.7% temporal:3.3%
x264 [info]: coded y,uvDC,uvAC intra: 85.1% 90.7% 63.8% inter: 38.1% 47.8% 18.7%
x264 [info]: i16 v,h,dc,p: 34% 16% 9% 41%
x264 [info]: i8 v,h,dc,ddl,ddr,vr,hd,vl,hu: 9% 10% 4% 9% 14% 13% 15% 12% 14%
x264 [info]: i4 v,h,dc,ddl,ddr,vr,hd,vl,hu: 9% 8% 3% 9% 15% 15% 15% 11% 14%
x264 [info]: i8c dc,h,v,p: 42% 23% 17% 18%
x264 [info]: Weighted P-Frames: Y:4.7% UV:2.2%
x264 [info]: ref P L0: 50.6% 12.9% 15.1% 5.6% 4.7% 3.6% 3.2% 1.9% 2.0% 0.5% 0.0%
x264 [info]: ref B L0: 83.8% 7.7% 3.5% 1.7% 1.3% 1.0% 0.7% 0.3%
x264 [info]: ref B L1: 96.2% 3.8%
x264 [info]: kb/s:1842.00
Общее
Уникальный идентификатор : 215826682984319407715697174159092951457 (0xA25EB50828617157A7F0D68786FD29A1)
Полное имя : D:Загрузки из интернетаМои рипыВся правда о карибских пиратахTrue.Caribbean.Pirates.2006.kep.mkv
Формат : Matroska
Версия формата : Version 4 / Version 2
Размер файла : 1,45 Гбайт
Продолжительность : 1 ч. 25 м.
Общий поток : 2420 Кбит/сек
Дата кодирования : UTC 2014-02-06 07:01:52
Программа кодирования : mkvmerge v6.6.0 ('The Edge Of The In Between') built on Dec 1 2013 17:55:00
Библиотека кодирования : libebml v1.3.0 + libmatroska v1.4.1

Видео
Идентификатор : 1
Формат : AVC
Формат/Информация : Advanced Video Codec
Профиль формата : [email protected]
Параметр CABAC формата : Да
Параметр ReFrames формата : 9 кадров
Идентификатор кодека : V_MPEG4/ISO/AVC
Продолжительность : 1 ч. 25 м.
Битрейт : 1842 Кбит/сек
Ширина : 720 пикселей
Высота : 400 пикселей
Соотношение сторон : 16:9
Режим частоты кадров : Постоянный
Частота кадров : 23,976 кадра/сек
Цветовое пространство : YUV
Субдискретизация насыщенности : 4:2:0
Битовая глубина : 8 бит
Тип развёртки : Прогрессивная
Бит/(Пиксели*Кадры) : 0.267
Размер потока : 1,08 Гбайт (74%)
Заголовок : Rip ot kep
Библиотека кодирования : x264 core 130 r2273 b3065e6
Настройки программы : cabac=1 / ref=9 / deblock=1:-2:-1 / analyse=0x3:0x133 / me=umh / subme=9 / psy=1 / psy_rd=1.00:0.00 / mixed_ref=1 / me_range=32 / chroma_me=0 / trellis=2 / 8x8dct=1 / cqm=0 / deadzone=21,11 / fast_pskip=0 / chroma_qp_offset=-2 / threads=3 / lookahead_threads=1 / sliced_threads=0 / nr=0 / decimate=0 / interlaced=0 / bluray_compat=0 / constrained_intra=0 / bframes=3 / b_pyramid=2 / b_adapt=2 / b_bias=0 / direct=3 / weightb=1 / open_gop=0 / weightp=2 / keyint=250 / keyint_min=25 / scenecut=40 / intra_refresh=0 / rc_lookahead=60 / rc=2pass / mbtree=1 / bitrate=1842 / ratetol=1.0 / qcomp=0.60 / qpmin=10 / qpmax=51 / qpstep=4 / cplxblur=20.0 / qblur=0.5 / ip_ratio=1.40 / aq=1:1.00
Default : Да
Forced : Нет

Аудио #1
Идентификатор : 2
Формат : AC-3
Формат/Информация : Audio Coding 3
Расширение режима : CM (complete main)
Параметр Endianness формата : Big
Идентификатор кодека : A_AC3
Продолжительность : 1 ч. 25 м.
Вид битрейта : Постоянный
Битрейт : 192 Кбит/сек
Каналы : 2 канала
Расположение каналов : Front: L R
Частота : 48,0 КГц
Битовая глубина : 16 бит
Метод сжатия : С потерями
Размер потока : 118 Мбайт (8%)
Заголовок : Культура
Язык : Russian
Default : Да
Forced : Нет

Аудио #2
Идентификатор : 3
Формат : AC-3
Формат/Информация : Audio Coding 3
Расширение режима : CM (complete main)
Параметр Endianness формата : Big
Идентификатор кодека : A_AC3
Продолжительность : 1 ч. 25 м.
Вид битрейта : Постоянный
Битрейт : 384 Кбит/сек
Каналы : 6 каналов
Расположение каналов : Front: L C R, Side: L R, LFE
Частота : 48,0 КГц
Битовая глубина : 16 бит
Метод сжатия : С потерями
Задержка видео : 22 мс.
Размер потока : 236 Мбайт (16%)
Язык : English
Default : Нет
Forced : Нет
pb.wtf



Скачать Вся правда о карибских пиратах через торрент http://i4.imageban.ru/out/2014/02/06/e6ac14dd091b8e20651536c5863ccaad.png Скачать, смотреть онлайн Вся правда о карибских пиратах бесплантно в хорошем качестве Описание: Они - гроза морей. Самые кровожадные головорезы того времени. В XVII и XVIII веках карибские пираты захватили тысячи кораблей, ... 9.7 10 17
× Info от релизера! Вся правда о карибских пиратах / True Caribbean Pirates
Info! Золотая раздача, скачанное не засчитывается.
Торрент: Зарегистрирован [2014-02-06 15:41] · скачан: 208 раз
Статус: √ проверено
Размер: 1.45 GB
Как cкачать? Как скачать Вся правда о карибских пиратах через торрент | UTorrent

28-11-2019 20:33  

Отключить вcю реклaмy на сайте

    Дорогой пользователь! Огромная просьба, поблагодарите релизера, оцените раздачу и оставьте свои комментарий, если Вы скачали Вся правда о карибских пиратах через торрент бесплатно!
    Комментировать посты могут только пользователи прошедшие не сложную регистрацию
    Показать сообщения:    

    Вся правда о карибских пиратах через торрент
    Скачать бесплатно Вся правда о карибских пиратах
    Вся правда о карибских пиратах скачать торрент
    Вся правда о карибских пиратах смотреть онлайн
    Cкачать фильм Вся правда о карибских пиратах бесплатно
    Вся правда о карибских пиратах скачать торрент в хорошем качестве
    Вся правда о карибских пиратах смотреть онлайн бесплатно в хорошем качестве


    Вы не можете начинать темы
    Вы не можете отвечать на сообщения
    Вы не можете редактировать свои сообщения
    Вы не можете удалять свои сообщения
    Вы не можете голосовать в опросах
    Вы не можете прикреплять файлы к сообщениям
    Вы можете скачивать файлы