Всегда рабочее зеркало без VPN и Proxy просто перед .vidak.icu напиши любое слово или цифру, Пример http://lyt5.vidak.icu

MVO

2 сезон

1 сезон

1

1 сезон

iTunes

2 сезон

13

1 сезон

Deluxe

pack

Рекомендуем

Пиратка

30

ВАЖНО

RePack

MK11

RePack

jed

RePack

fifa19

RePack

RDR2

RePack

NEED FOR SPEED™ PAYBACK

Кинопоиск HD

6 сезон

 Острые козырьки 6 сезон

Все сериалы

все сериалы на PB.wtf

RePack

FAR CRY 5

Anonymous, нам критически не хватает 5601 руб. на оплату серверов и переферии за Апрель, помоги нам пожалуйста, вся надежда только на тебя. В благодарность мы отключим тебе всю рекламу на сайте!

×
  
Magnet ссылка

Отель «Нуар» / Hotel Noir (Себастьян Гутьеррес / Sebastian Gutierrez) [2012, США, драма, криминал, HDRip,Авторский (одноголосый) [А. Дольский] pb.wtf

Отель «Нуар» через торрент pb.wtf

Размер: 1.38 GB | Добавлен: 8 лет 3 мес. назад | Торрент скачан:87 раз
Смотреть онлайн Отель «Нуар» | Скачать    Ребята, помогите собрать деньги на оплату серверов!!!

17-02-2014 17:11 Отель «Нуар» Скачать торрент  


Отель «Нуар» / Hotel Noir

«Evil wears many faces»

  • Год выпуска:2012
  • Страна:США
  • Жанр: драма, криминал

  • Продолжительность: 01:36:32
  • Перевод: Авторский (одноголосый) [А. Дольский]

  • Субтитры: Нет
  • Режиссер:Себастьян Гутьеррес / Sebastian Gutierrez
  • В ролях: Малин Акерман (Swedish Mary), Аарон Бер (Paul), Джон Колелла (Barman Jack), Кевин Коннолли (Vance), Мишель Доули (Dancer), Розарио Доусон (Sevilla), Дэнни ДеВито (Eugene Portland), Эндрю Фисцелла (Otto), Роберт Форстер (Jim Logan), Карла Гуджино (Hanna Click), Патрик Хайд (Nightclub Patron), Майкл Б. Джордан (Leon)
    • Описание:
      Криминальный триллер с эротическим окрасом, действие которого разворачивается в Лос-Анджелесе 50-х. Главный герой истории - детектив, спрятавшийся в отеле от своего убийцы.

    • Качество:HDRip
    • Формат:AVI
    • Видео кодек: XviD
    • Аудио кодек:AC3
    • Видео: 720x304 (2.35:1), 1596 kbps, 23,976 fps
    • Аудио: AC3 / 5.1 / 48 kHz / 448 kbps / 16 bit


    Код:

    General
    Complete name                            : D:ТорентыHotel.Noir.2012.A.HDRip.1400MB.avi
    Format                                   : AVI
    Format/Info                              : Audio Video Interleave
    File size                                : 1.38 GiB
    Duration                                 : 1h 36mn
    Overall bit rate                         : 2 053 Kbps
    Writing application                      : VirtualDubMod 1.5.10.2 (build 2540/release)
    Writing library                          : VirtualDubMod build 2540/release

    Video
    ID                                       : 0
    Format                                   : MPEG-4 Visual
    Format profile                           : Advanced Simple@L5
    Format settings, BVOP                    : 2
    Format settings, QPel                    : No
    Format settings, GMC                     : No warppoints
    Format settings, Matrix                  : Default (H.263)
    Muxing mode                              : Packed bitstream
    Codec ID                                 : XVID
    Codec ID/Hint                            : XviD
    Duration                                 : 1h 36mn
    Bit rate                                 : 1 596 Kbps
    Width                                    : 720 pixels
    Height                                   : 304 pixels
    Display aspect ratio                     : 2.35:1
    Frame rate                               : 23.976 fps
    Color space                              : YUV
    Chroma subsampling                       : 4:2:0
    Bit depth                                : 8 bits
    Scan type                                : Progressive
    Compression mode                         : Lossy
    Bits/(Pixel*Frame)                       : 0.304
    Stream size                              : 1.08 GiB (78%)
    Writing library                          : XviD 64

    Audio
    ID                                       : 1
    Format                                   : AC-3
    Format/Info                              : Audio Coding 3
    Mode extension                           : CM (complete main)
    Codec ID                                 : 2000
    Duration                                 : 1h 36mn
    Bit rate mode                            : Constant
    Bit rate                                 : 448 Kbps
    Channel(s)                               : 6 channels
    Channel positions                        : Front: L C R, Side: L R, LFE
    Sampling rate                            : 48.0 KHz
    Bit depth                                : 16 bits
    Compression mode                         : Lossy
    Stream size                              : 309 MiB (22%)
    Alignment                                : Split accross interleaves
    Interleave, duration                     : 42 ms (1.00 video frame)
    Interleave, preload duration             : 500 ms

    Скриншоты:

    Трейлеры к фильмам [2014]
    © Оформление by Raven pb.wtf



  • Скачать Отель «Нуар» через торрент https://pic1.kartinco.top/images/61/ordi9.jpg Скачать, смотреть онлайн Отель «Нуар» бесплантно в хорошем качестве Описание:Криминальный триллер с эротическим окрасом, действие которого разворачивается в Лос-Анджелесе 50-х. Главный герой истории - ... 10 10 4
    Info! Золотая раздача, скачанное не засчитывается.
    Торрент: Зарегистрирован [2014-02-17 17:11] · скачан: 87 раз
    Статус: √ проверено
    Размер: 1.38 GB
    Как cкачать? Как скачать Отель «Нуар» через торрент | UTorrent

    % Раздел Тема Автор DL S | L
    Фильмы с авторской озвучкой [ 8.98 GB ] Отель «Нуар» / Hotel Noir [2012 BDRip 1080p Авторский ] кэп Скачать
    1 | 0

    28-11-2019 20:33  

    Отключить всю рекламу на сайте

    17-02-2014 22:38 Отель «Нуар» Скачать торрент  

    ни нуара ни трилера ни эротич окрасаpb.wtf



      Дорогой пользователь! Огромная просьба, поблагодарите релизера, оцените раздачу и оставьте свои комментарий, если Вы скачали Отель «Нуар» через торрент бесплатно!
      Комментировать посты могут только пользователи прошедшие не сложную регистрацию
      Показать сообщения:    

      Отель «Нуар» через торрент
      Скачать бесплатно Отель «Нуар»
      Отель «Нуар» скачать торрент
      Отель «Нуар» смотреть онлайн
      Cкачать фильм Отель «Нуар» бесплатно
      Отель «Нуар» скачать торрент в хорошем качестве
      Отель «Нуар» смотреть онлайн бесплатно в хорошем качестве


      Вы не можете начинать темы
      Вы не можете отвечать на сообщения
      Вы не можете редактировать свои сообщения
      Вы не можете удалять свои сообщения
      Вы не можете голосовать в опросах
      Вы не можете прикреплять файлы к сообщениям
      Вы можете скачивать файлы