Всегда рабочее зеркало без VPN и Proxy просто перед .vidak.icu напиши любое слово или цифру, Пример http://n3ne.vidak.icu

MVO

Лицензия

1 сезон

1

1 сезон

iTunes

1 сезон

13

1 сезон

Deluxe

pack

Рекомендуем

Пиратка

30

ВАЖНО

RePack

MK11

RePack

jed

RePack

fifa19

RePack

RDR2

RePack

NEED FOR SPEED™ PAYBACK

Кинопоиск HD

6 сезон

 Острые козырьки 6 сезон

Все сериалы

все сериалы на PB.wtf

RePack

FAR CRY 5
  
Magnet ссылка

Сумасшедший / Pazze di me (Фаусто Брицци / Fausto Brizzi) [2013, Италия, комедия, HDRip,Любительский (одноголосый)[datynet] pb.wtf

Сумасшедший через торрент pb.wtf

Размер: 1.47 GB | Добавлен: 8 лет 3 мес. назад | Торрент скачан:52 раза
Смотреть онлайн Сумасшедший | Скачать    Ребята, помогите собрать деньги на оплату серверов!!!

17-03-2014 11:18 Сумасшедший Скачать торрент  

Сумасшедший / Pazze di me


  • Год выпуска:2013
  • Страна:Италия
  • Жанр: комедия

  • Продолжительность: 01:34:51
  • Перевод: Любительский (одноголосый)[datynet]

  • Субтитры: Нет
  • Режиссер:Фаусто Брицци / Fausto Brizzi
  • В ролях:

    Франческо Манделли (Andrea), Паола Миначчони (Bogdana), Киара Франчини (Beatrice), Лоретта Годжи (Vittoria), Клаудия Дзанелла (Veronica), Марина Рокко (Federica), Валерия Билелло (Giulia), Люсия Поли (Nonna di Andrea), Маурицио Микели (Portiere), Gioele Dix (Chirurgo padre di Giulia), Флавио Инсинна (Padre di Andrea), Маргерита Викарио (Roberta)
    • Описание:
      Андреа - единственный парень в чисто женской семье: мама, три сестры, бабушка, ее сиделка и собака, конечно же сучка. Отец семейства сбежал от них много лет назад, не вынеся этот женский "коллектив". Перед уходом он сказал сыну: "Теперь это твоя головная боль". Только через много лет он понял, что имел ввиду отец. Андреа пришлось очень нелегко, всю его жизнь его семья, может и не преднамеренно, но отравляла ему жизнь, в особенности в плане отношений с девушками. И вот, когда он встретил девушку всей своей жизни, Андреа не нашел ничего умнее, как выдать себя за сироту. И все бы было хорошо, но такую семью нелегко скрыть, даже в большом городе и обман раскрылся...

    Мировая премьера:24 января 2013
    • Качество:HDRip
    • Формат:AVI
    • Видео кодек: XviD
    • Аудио кодек:AC3
    • Видео: XviD, 720x304 (2.35:1), 2015 kbps, 24 fps, 0,384 bpp
    • Аудио: AC3 / 2.0 / 44 kHz / 192 kbps / 16 bit


    Код:

    General
    Complete name                            : D:ТорентыСумасшедшая семейка (Без ума от меня, Сумасшедший).2013.HDRip.avi
    Format                                   : AVI
    Format/Info                              : Audio Video Interleave
    File size                                : 1.47 GiB
    Duration                                 : 1h 34mn
    Overall bit rate                         : 2 218 Kbps

    Video
    ID                                       : 0
    Format                                   : MPEG-4 Visual
    Format profile                           : Advanced Simple@L5
    Format settings, BVOP                    : 2
    Format settings, QPel                    : No
    Format settings, GMC                     : No warppoints
    Format settings, Matrix                  : Default (H.263)
    Codec ID                                 : XVID
    Codec ID/Hint                            : XviD
    Duration                                 : 1h 34mn
    Bit rate                                 : 2 016 Kbps
    Width                                    : 720 pixels
    Height                                   : 304 pixels
    Display aspect ratio                     : 2.35:1
    Frame rate                               : 24.000 fps
    Color space                              : YUV
    Chroma subsampling                       : 4:2:0
    Bit depth                                : 8 bits
    Scan type                                : Progressive
    Compression mode                         : Lossy
    Bits/(Pixel*Frame)                       : 0.384
    Stream size                              : 1.34 GiB (91%)
    Writing library                          : XviD 73

    Audio
    ID                                       : 1
    Format                                   : AC-3
    Format/Info                              : Audio Coding 3
    Mode extension                           : CM (complete main)
    Codec ID                                 : 2000
    Duration                                 : 1h 34mn
    Bit rate mode                            : Constant
    Bit rate                                 : 192 Kbps
    Channel(s)                               : 2 channels
    Channel positions                        : Front: L R
    Sampling rate                            : 44.1 KHz
    Bit depth                                : 16 bits
    Compression mode                         : Lossy
    Stream size                              : 130 MiB (9%)
    Alignment                                : Aligned on interleaves
    Interleave, duration                     : 35 ms (0.84 video frame)
    Interleave, preload duration             : 522 ms

    Скриншоты:

    Трейлеры к фильмам [2014]
    © Оформление by Raven pb.wtf



  • Скачать Сумасшедший через торрент http://i4.imageban.ru/out/2014/03/17/d36be616802f7dda001de559ad878908.jpg Скачать, смотреть онлайн Сумасшедший бесплантно в хорошем качестве Описание:Андреа - единственный парень в чисто женской семье: мама, три сестры, бабушка, ее сиделка и собака, конечно же сучка. Отец ... 10 10 4
    Торрент: Зарегистрирован [2014-03-17 11:18] · скачан: 52 раз
    Статус: T временная
    Размер: 1.47 GB
    Как cкачать? Как скачать Сумасшедший через торрент | UTorrent

    28-11-2019 20:33  

    Отключить всю рекламу на сайте

      Дорогой пользователь! Огромная просьба, поблагодарите релизера, оцените раздачу и оставьте свои комментарий, если Вы скачали Сумасшедший через торрент бесплатно!
      Комментировать посты могут только пользователи прошедшие не сложную регистрацию
      Показать сообщения:    

      Сумасшедший через торрент
      Скачать бесплатно Сумасшедший
      Сумасшедший скачать торрент
      Сумасшедший смотреть онлайн
      Cкачать фильм Сумасшедший бесплатно
      Сумасшедший скачать торрент в хорошем качестве
      Сумасшедший смотреть онлайн бесплатно в хорошем качестве


      Вы не можете начинать темы
      Вы не можете отвечать на сообщения
      Вы не можете редактировать свои сообщения
      Вы не можете удалять свои сообщения
      Вы не можете голосовать в опросах
      Вы не можете прикреплять файлы к сообщениям
      Вы можете скачивать файлы