Ссылка на приватное зеркало нашего сайта всего за 1$. Внимание количество ограничено!!!

2 сезон

iTunes

1 сезон

1

2 сезон

2 сезон

iTunes

1 сезон

RePack

30

Ultimate

ВАЖНО

ИГРА 18+

pack

RePack

MK11
pack

Забери бонус

RePack

jed

!!Акция!!

Alien_Rage

RePack

fifa19

RePack

Assassins Creed: Odyssey

RePack

NEED FOR SPEED™ PAYBACK

4 сезон

9 сезон

Бесстыжие 9 сезон

Все сериалы

все сериалы на PB.wtf

RePack

FAR CRY 5
  

Логово / Прибежище / Haunt (Мак Картер / Mac Carter) [2013, США, ужасы, WEB-DLRip,Любительский (двухголосый)[den904, DeadSno] pb.wtf

Логово через торрент pb.wtf

Размер: 1.34 GB | Добавлен: 6 лет 8 мес. назад | Торрент скачан:286 раз
Скачать  

19-03-2014 21:15 Логово Скачать торрент  

Логово / Прибежище / Haunt


  • Год выпуска:2013
  • Страна:США
  • Жанр: ужасы
  • Продолжительность: 01:25:47
  • Перевод: Любительский (двухголосый)[den904, DeadSno]

  • Субтитры: Нет
  • Режиссер:Мак Картер / Mac Carter
  • В ролях:

    Лиана Либерато (Sam), Айони Скай (Emily Asher), Джеки Уивер (Janet Morello), Харрисон Джилбертсон (Evan), Даниэль Чачран (Sara Asher), Джен Броберг (Meredith), Келли Нунан (Real Estate Agent), Алин Андраде (Young Woman), Касия Ковальчук (Demon Creature), Себастьян Майкл Барр (Matthew Morello), Бренден Уитни (EMT), Мэгги Скотт (Youngest Morello Daughter)
    • Описание:
      Замкнутый подросток воодушевляется знакомством со своим новым соседом, и уже вместе парочка начинает исследовать дом с привидениями, который его семья накануне купила по неведению.

    Мировая премьера:6 ноября 2013
    • Качество:WEB-DLRip
    • Формат:AVI
    • Видео кодек: XviD
    • Аудио кодек:AC3
    • Видео: XviD, 720x304 (2.35:1), 1845 kbps, 23,976 fps, 0,352 bpp
    • Аудио: AC3 / 5.1 / 48 kHz / 384 kbps / 16 bit


    Код:

    General
    Complete name                            : D:ТорентыHaunt.2013.L2.WEB-DLRip.1400MB..avi
    Format                                   : AVI
    Format/Info                              : Audio Video Interleave
    File size                                : 1.34 GiB
    Duration                                 : 1h 25mn
    Overall bit rate                         : 2 237 Kbps

    Video
    ID                                       : 0
    Format                                   : MPEG-4 Visual
    Format profile                           : Advanced Simple@L5
    Format settings, BVOP                    : 1
    Format settings, QPel                    : No
    Format settings, GMC                     : No warppoints
    Format settings, Matrix                  : Default (MPEG)
    Muxing mode                              : Packed bitstream
    Codec ID                                 : XVID
    Codec ID/Hint                            : XviD
    Duration                                 : 1h 25mn
    Bit rate                                 : 1 845 Kbps
    Width                                    : 720 pixels
    Height                                   : 304 pixels
    Display aspect ratio                     : 2.35:1
    Frame rate                               : 23.976 fps
    Color space                              : YUV
    Chroma subsampling                       : 4:2:0
    Bit depth                                : 8 bits
    Scan type                                : Progressive
    Compression mode                         : Lossy
    Bits/(Pixel*Frame)                       : 0.352
    Stream size                              : 1.11 GiB (82%)
    Writing library                          : XviD 1.2.1 (UTC 2008-12-04)

    Audio
    ID                                       : 1
    Format                                   : AC-3
    Format/Info                              : Audio Coding 3
    Mode extension                           : CM (complete main)
    Codec ID                                 : 2000
    Duration                                 : 1h 25mn
    Bit rate mode                            : Constant
    Bit rate                                 : 384 Kbps
    Channel(s)                               : 6 channels
    Channel positions                        : Front: L C R, Side: L R, LFE
    Sampling rate                            : 48.0 KHz
    Bit depth                                : 16 bits
    Compression mode                         : Lossy
    Stream size                              : 236 MiB (17%)
    Alignment                                : Aligned on interleaves
    Interleave, duration                     : 64 ms (1.53 video frames)
    Interleave, preload duration             : 192 ms
    Title                                    : Haunt.2013.L2.WEB-DLRip.x264.1400MB.NNM-CLUB.GIU - [0] Russian_new

    Скриншоты:

    Трейлеры к фильмам [2014]
    © Оформление by Raven pb.wtf



  • Скачать Логово через торрент http://i2.imageban.ru/out/2014/03/20/6a09472cdd393602681a4115d5d5859a.jpg Скачать фильм Логово через торрент бесплантно в хорошем качестве Описание:Замкнутый подросток воодушевляется знакомством со своим новым соседом, и уже вместе парочка начинает исследовать дом с ... 8.5 10 10
    Торрент: Зарегистрирован [2014-03-19 21:15] · скачан: 286 раз
    Статус: T временная
    Размер: 1.34 GB
    Как cкачать? Как скачать Логово через торрент | qTorrent

    % Раздел Тема Автор DL S | L
    T Фильмы 2013 [DVDrip, WEB-DLRip, HDrip] [ 1.37 GB ] Логово зверя / Прибежище / Haunt / Haunter [2013 HDRip ] / Чистый звук GEKADOL Скачать
    1 | 0
    Фильмы [HD 720p, 1080p] (Хороший звук DUB, MVO) [ 7.65 GB ] Логово зверя / Прибежище / Haunt [2013 BDRip 1080p ] Ворон Скачать
    1 | 0
    T Фильмы 2013 [DVDrip, WEB-DLRip, HDrip] [ 1.45 GB ] Логово зверя / Прибежище / Haunt / Haunter [2013 HDRip ] / Чистый звук Ворон Скачать
    1 | 0

    28-11-2019 20:33  

    Отключить всю рекламу на сайте

    20-03-2014 03:11 Логово Скачать торрент  

    как фильм -то ?pb.wtf



      Дорогой пользователь! Огромная просьба, поблагодарите релизера, оцените раздачу и оставьте свои комментарий, если Вы скачали Логово через торрент бесплатно! Внесите свою лепту в развитие PiratBit!
      Комментировать посты могут только пользователи прошедшие не сложную регистрацию
      Показать сообщения:    

      Логово через торрент
      Скачать бесплатно Логово
      Логово скачать торрент
      Логово смотреть онлайн
      Cкачать фильм Логово бесплатно
      Логово скачать торрент в хорошем качестве
      Логово смотреть онлайн бесплатно в хорошем качестве


      Вы не можете начинать темы
      Вы не можете отвечать на сообщения
      Вы не можете редактировать свои сообщения
      Вы не можете удалять свои сообщения
      Вы не можете голосовать в опросах
      Вы не можете прикреплять файлы к сообщениям
      Вы можете скачивать файлы