Доктор Стрэндж

Лицензия

Добыча

Дубляж

Уэнсдэй

1 сезон

Тор

Дубляж

В эфире

Дубляж

Там, где раки поют

MVO

Властелин колец

1 сезон

Deluxe

pack

Рекомендуем

30

Пиратка

ВАЖНО

ВАЖНО

Ghostwire

Пиратка

jed

RePack

nioh2

RePack

RDR2

RePack

NEED FOR SPEED™ PAYBACK

RePack

скачать торрент

Кинопоиск HD

Острые козырьки 6 сезон

6 сезон

FAR CRY 6

RePack

скачать торрент

Лицензия

скачать торрент

MVO

1

1 сезон

скачать торрент

1 сезон

скачать торрент

Лицензия

  

Кровотечение / Дом Сострадания / The Bleeding / The Bleeding House (Филип Джелэтт / Philip Gelatt) [2011, США, ужасы, триллер, драма, BDRip720p] VO [ХиХиДок]

Кровотечение через торрент pb.wtf

Размер: 3.39 GB | Добавлен: 8 лет 8 мес. назад | Торрент скачан:72 раза
Смотреть онлайн | Скачать   

20-03-2014 08:43 Кровотечение Скачать торрент  

Кровотечение / Дом Сострадания / The Bleeding / The Bleeding House
«Благодать придет к вам»

Год выпуска: 2011
Страна: США
Жанр: ужасы, триллер, драма, детектив
Продолжительность: 01:26:20
Перевод: Любительский (одноголосый)[ХиХиДок]
Субтитры: Нет

Режиссер: Филип Джелэтт / Philip Gelatt
Сценарий: Филип Джелэтт / Philip Gelatt
Продюсер: Питер Эскин / Peter Askin, Уилл Баттерсби / Will Battersby, Пер Мелита / Per Melita, Тори Таннелл / Tory Tunnell
Оператор: Фредерик Фазано / Frederic Fasano
Композитор: Хильдур Гуднадоттир / Hildur Gudnadóttir

Александра Чандо (Gloria), Нина Лизандрелло (Lynne), Патрик Брин (Nick), Чарли Хьюсон (Quentin), Ричард Бекинс (Matt), Корт Янг (Officer Schmidt), Бетси Айдем (Marilyn), Хендерсон Вэйд (Officer Bayne), Гретчен Макгоун (Mrs. Bell), Jonathan Gelatt (Jonathan Bell), Victoria Dalpe (Beth), Per Melita (Mr. Bell)

Мировая премьера: 20 апреля 2011

Описание:Незнакомец с весьма загадочными намерениями приходит переночевать ночь в уединенном загородном домике, но хозяева далеко не так простоваты, как могут выглядеть на первый взгляд. Невероятно странная семейка, раздираемая на части жестоким прошлым и жуткими секретами, значительно более смертоносными, чем он мог ожидать.
Семейство Смит, в свою очередь, необычайно гостеприимно встречает приятнейшего во всех отношениях говорливого южанина, ведь все что он ищет, это лишь немного загородного радушия. Но они скоро узнаете доброту по отношению к посторонним, не всегда вознаграждается, а скрытный незнакомец найдете искупление не всегда дается легко. Впрочем, они скоро узнают, что доброта и гуманность не всегда вознаграждается, а искупление не дается легко и просто.

Рейтинг
imdb.com: 5.10 (1031)

Качество: BDRip720p
Формат: MKV
Видео кодек: AVC
Аудио кодек: AC3/DTS
Видео: 4658 Кбит/сек, 1280*720 (16:9), в 23,976 кадра/сек, AVC
Аудио №1: Русский 192 Кбит/сек, 44,1 КГц, 16 бит, 2 канала, AC-3
Аудио №2: Английский 755 Кбит/сек, 48,0 КГц, 16 бит, 6 каналов, DTS

Общее
Уникальный идентификатор : 242656945244266790488054862869719588555 (0xB68E0717BCA71976ABB07DFE075E9ECB)
Полное имя : D:ФильмыКровотечение.mkv
Формат : Matroska
Версия формата : Version 4 / Version 2
Размер файла : 3,39 Гбайт
Продолжительность : 1 ч. 26 м.
Общий поток : 5615 Кбит/сек
Название фильма : Release Group CINEMANIA
Дата кодирования : UTC 2014-03-19 21:05:50
Программа кодирования : mkvmerge v6.8.0 ('Theme for Great Cities') 64bit built on Mar 2 2014 21:34:26
Библиотека кодирования : libebml v1.3.0 + libmatroska v1.4.1

Видео
Идентификатор : 1
Формат : AVC
Формат/Информация : Advanced Video Codec
Профиль формата : [email protected]
Параметр CABAC формата : Да
Параметр ReFrames формата : 5 кадров
Идентификатор кодека : V_MPEG4/ISO/AVC
Продолжительность : 1 ч. 26 м.
Битрейт : 4658 Кбит/сек
Ширина : 1280 пикселей
Высота : 720 пикселей
Соотношение сторон : 16:9
Режим частоты кадров : Постоянный
Частота кадров : 23,976 кадра/сек
Цветовое пространство : YUV
Субдискретизация насыщенности : 4:2:0
Битовая глубина : 8 бит
Тип развёртки : Прогрессивная
Бит/(Пиксели*Кадры) : 0.211
Размер потока : 2,75 Гбайт (81%)
Заголовок : Release Group CINEMANIA
Библиотека кодирования : x264 core 140 r2377 1ca7bb9
Настройки программы : cabac=1 / ref=5 / deblock=1:-3:-3 / analyse=0x3:0x133 / me=umh / subme=8 / psy=1 / psy_rd=1.00:0.15 / mixed_ref=1 / me_range=16 / chroma_me=1 / trellis=1 / 8x8dct=1 / cqm=0 / deadzone=21,11 / fast_pskip=0 / chroma_qp_offset=-4 / threads=18 / lookahead_threads=3 / sliced_threads=0 / nr=0 / decimate=1 / interlaced=0 / bluray_compat=0 / constrained_intra=0 / bframes=3 / b_pyramid=2 / b_adapt=2 / b_bias=0 / direct=3 / weightb=1 / open_gop=0 / weightp=2 / keyint=230 / keyint_min=22 / scenecut=40 / intra_refresh=0 / rc_lookahead=50 / rc=2pass / mbtree=1 / bitrate=4658 / ratetol=1.0 / qcomp=0.60 / qpmin=10 / qpmax=69 / qpstep=4 / cplxblur=20.0 / qblur=0.5 / ip_ratio=1.40 / aq=1:1.00
Язык : English
Default : Да
Forced : Нет

Аудио #1
Идентификатор : 2
Формат : AC-3
Формат/Информация : Audio Coding 3
Расширение режима : CM (complete main)
Параметр Endianness формата : Big
Идентификатор кодека : A_AC3
Продолжительность : 1 ч. 26 м.
Вид битрейта : Постоянный
Битрейт : 192 Кбит/сек
Каналы : 2 канала
Расположение каналов : Front: L R
Частота : 44,1 КГц
Битовая глубина : 16 бит
Метод сжатия : С потерями
Размер потока : 119 Мбайт (3%)
Заголовок : ХиХиДок
Язык : Russian
Default : Да
Forced : Да

Аудио #2
Идентификатор : 3
Формат : DTS
Формат/Информация : Digital Theater Systems
Идентификатор кодека : A_DTS
Продолжительность : 1 ч. 26 м.
Вид битрейта : Постоянный
Битрейт : 755 Кбит/сек
Каналы : 6 каналов
Расположение каналов : Front: L C R, Side: L R, LFE
Частота : 48,0 КГц
Битовая глубина : 16 бит
Метод сжатия : С потерями
Размер потока : 466 Мбайт (13%)
Язык : English
Default : Нет
Forced : Нет

Меню
00:00:00.000 : en:00:00:00.000
00:02:11.005 : en:00:02:11.005
00:13:26.013 : en:00:13:26.013
00:20:48.038 : en:00:20:48.038
00:28:41.970 : en:00:28:41.970
00:36:13.963 : en:00:36:13.963
00:43:42.995 : en:00:43:42.995
00:50:07.963 : en:00:50:07.963
00:58:05.899 : en:00:58:05.899
01:06:46.961 : en:01:06:46.961
01:14:44.938 : en:01:14:44.938
01:23:45.937 : en:01:23:45.937








Скачать Кровотечение через торрент https://pic1.kartinco.top/images/61/j2631.jpg Скачать, смотреть онлайн Кровотечение бесплантно в хорошем качестве Описание:Незнакомец с весьма загадочными намерениями приходит переночевать ночь в уединенном загородном домике, но хозяева далеко не так ... 8 10 5
Торрент: Зарегистрирован [2014-03-20 08:43] · скачан: 72 раз
Статус: T временная
Размер: 3.39 GB
Как cкачать? Как скачать Кровотечение через торрент | UTorrent




Последний раз редактировалось: GEKADOL (2014-04-11 02:48), всего редактировалось 1 раз

28-11-2019 20:33  


Отключить вcю реклaмy на сайте, в т.ч. и в плеере онлайн просмотра!

20-03-2014 11:53 Кровотечение Скачать торрент  

"Но они скоро узнаете доброту по отношению к посторонним, не всегда вознаграждается, а скрытный незнакомец найдете искупление не всегда дается легко."
Да здравствуют электронные переводчики!



    Дорогой пользователь! Огромная просьба, поблагодарите релизера, оцените раздачу и оставьте свои комментарий, если Вы скачали Кровотечение через торрент бесплатно!!
    Комментировать посты могут только пользователи прошедшие не сложную регистрацию
    Показать сообщения:    


    Кровотечение через торрент
    Скачать бесплатно Кровотечение
    Кровотечение скачать торрент
    Кровотечение смотреть онлайн
    Cкачать фильм Кровотечение бесплатно
    Кровотечение скачать торрент в хорошем качестве
    Кровотечение смотреть онлайн бесплатно в хорошем качестве
    Вы не можете начинать темы
    Вы не можете отвечать на сообщения
    Вы не можете редактировать свои сообщения
    Вы не можете удалять свои сообщения
    Вы не можете голосовать в опросах
    Вы не можете прикреплять файлы к сообщениям
    Вы можете скачивать файлы
    Кровотечение / Дом Сострадания / The Bleeding / The Bleeding House [2011, США, ужасы, триллер, драма, BDRip720p] VO [ХиХиДок] смотреть онлайн, скачать торрент picoco.icu