Всегда рабочее зеркало без VPN и Proxy просто перед .vidak.icu напиши любое слово или цифру, Пример http://pnvv.vidak.icu

MVO

2 сезон

1 сезон

1

1 сезон

iTunes

2 сезон

13

1 сезон

Deluxe

pack

Рекомендуем

Пиратка

30

ВАЖНО

RePack

MK11

RePack

jed

RePack

fifa19

RePack

RDR2

RePack

NEED FOR SPEED™ PAYBACK

Кинопоиск HD

6 сезон

 Острые козырьки 6 сезон

Все сериалы

все сериалы на PB.wtf

RePack

FAR CRY 5

Anonymous, нам критически не хватает 5601 руб. на оплату серверов и переферии за Апрель, помоги нам пожалуйста, вся надежда только на тебя. В благодарность мы отключим тебе всю рекламу на сайте!

×
  
Magnet ссылка

Хорошие вибрации / Good Vibrations (Лиза Баррос Д’Са, Глен Лейберн) [2012 г., драма, биография, музыка, HDRip, Авторский одноголосый(М.Яроцкий)] pb.wtf

Хорошие вибрации через торрент pb.wtf

Размер: 2.18 GB | Добавлен: 8 лет 2 мес. назад | Торрент скачан:8 раз
Смотреть онлайн Хорошие вибрации | Скачать    Ребята, помогите собрать деньги на оплату серверов!!!

21-03-2014 16:23 Хорошие вибрации Скачать торрент  

Хорошие вибрации / Good Vibrations
Год выпуска: 2012
Страна: Великобритания, Ирландия / Canderblinks Film and Music, Revolution Films, Matador Pictures
Жанр: драма, биография, музыка.
Продолжительность: 01:42:44
Перевод: Авторский одноголосый (М.Яроцкий)

Режиссер: Лиза Баррос Д’Са, Глен Лейберн



В ролях: Лиам Каннингэм, Джоди Уиттакер, Дилан Моран, Дэвид Уилмот, Эндрю Симпсон, Карл Джонсон, Марк Райдер, Ричард Дормер, Киллиан Скотт, Ниал Райт,

Описание: Белфаст, 70-е годы. Терри Хули — меломан и ожесточенный бунтарь. Он спокойно живет в родном городе, пока он не захлебывается от конфликта в Северной Ирландии. Пока все как один друзья Терри берутся за оружие, он открывает музыкальную лавку Good Vibrations. И не где-нибудь, а в самом сердце конфликта, в самой горячей точке Европы.

Именно здесь он улавливает вибрации сопротивления, поступающие от молодой панк-тусовки. Более того, Терри становится лидером пестрой группы, призванной создать новую общину, альтернативный Ольстер, которая бы вернула к жизни измученный город.

Качество: HDRip
Формат: AVI
Видео кодек: XviD
Аудио кодек: AC3
Видео: 720x304 (2.37:1), 23.976 fps, XviD build 50 ~2588 kbps avg, 0.49 bit/pixel
Аудио: 48 kHz, AC3 Dolby Digital, 3/2 (L,C,R,l,r) + LFE ch, ~448 kbps


Общее
Полное имя : H:киноGood.Vibrations.2012.HDRip.avi
Формат : AVI
Формат/Информация : Audio Video Interleave
Профиль формата : OpenDML
Размер файла : 2,18 Гбайт
Продолжительность : 1 ч. 42 м.
Общий поток : 3043 Кбит/сек
Название фильма : Good.Vibrations.2012.HDRip.avi
Режиссёр : Rip by coc900
Программа кодирования : VirtualDubMod 1.5.10.3 | www.virtualdub-fr.org || (build 2550/release)

Видео
Идентификатор : 0
Формат : MPEG-4 Visual
Профиль формата : Advanced Simple@L5
Параметр BVOP формата : 2
Параметр QPel формата : Нет
Параметр GMC формата : Без точки перехода
Параметр матрицы формата : Default (H.263)
Идентификатор кодека : XVID
Идентификатор кодека/Подсказка : XviD
Продолжительность : 1 ч. 42 м.
Битрейт : 2583 Кбит/сек
Ширина : 720 пикселей
Высота : 304 пикселя
Соотношение сторон : 2,35:1
Частота кадров : 23,976 кадра/сек
Цветовое пространство : YUV
Субдискретизация насыщенности : 4:2:0
Битовая глубина : 8 бит
Тип развёртки : Прогрессивная
Метод сжатия : С потерями
Бит/(Пиксели*Кадры) : 0.492
Размер потока : 1,85 Гбайт (85%)
Библиотека кодирования : XviD 1.2.1 (UTC 2008-12-04)

Аудио
Идентификатор : 1
Формат : AC-3
Формат/Информация : Audio Coding 3
Расширение режима : CM (complete main)
Параметр Endianness формата : Big
Идентификатор кодека : 2000
Продолжительность : 1 ч. 42 м.
Вид битрейта : Постоянный
Битрейт : 448 Кбит/сек
Каналы : 6 каналов
Расположение каналов : Front: L C R, Side: L R, LFE
Частота : 48,0 КГц
Битовая глубина : 16 бит
Метод сжатия : С потерями
Размер потока : 329 Мбайт (15%)
Выравнивание : Разделение по промежуткам
Продолжительность промежутка : 42 мс. (1,00 видеокадр)
Время предзагрузки промежутка : 500 мс.

pb.wtf



Скачать Хорошие вибрации через торрент https://pic1.kartinco.top/images/61/wwepv.jpg Скачать, смотреть онлайн Хорошие вибрации бесплантно в хорошем качестве Описание: Белфаст, 70-е годы. Терри Хули — меломан и ожесточенный бунтарь. Он спокойно живет в родном городе, пока он не захлебывается от ... 10 10 1
Торрент: Зарегистрирован [2014-03-21 16:23] · скачан: 8 раз
Статус: √ проверено
Размер: 2.18 GB
Как cкачать? Как скачать Хорошие вибрации через торрент | UTorrent

% Раздел Тема Автор DL S | L
Фильмы [HD 720p, 1080p] (Хороший звук DUB, MVO) [ 9.37 GB ] Хорошие вибрации / Good Vibrations [2012 биография музыка BDRip 1080p] [MVO] killermax2013 Скачать
1 | 0
Фильмы с авторской озвучкой [ 7.54 GB ] Хорошие вибрации / Good Vibrations [2012 биография музыка BDRip 1080p by msltel] AVO msltel Скачать
1 | 0
Фильмы с авторской озвучкой [ 2.93 GB ] Хорошие вибрации / Good Vibrations [2012 биография музыка BDRip 720p by msltel] AVO msltel Скачать
1 | 0
Гонзо [ 2.04 GB ] Хорошие Вибрации / ATK Good Vibrations [2011 All Sex Amateur Young Ladies DVDRip] Shmel Скачать
1 | 0

28-11-2019 20:33  

Отключить всю рекламу на сайте

    Дорогой пользователь! Огромная просьба, поблагодарите релизера, оцените раздачу и оставьте свои комментарий, если Вы скачали Хорошие вибрации через торрент бесплатно!
    Комментировать посты могут только пользователи прошедшие не сложную регистрацию
    Показать сообщения:    

    Хорошие вибрации через торрент
    Скачать бесплатно Хорошие вибрации
    Хорошие вибрации скачать торрент
    Хорошие вибрации смотреть онлайн
    Cкачать фильм Хорошие вибрации бесплатно
    Хорошие вибрации скачать торрент в хорошем качестве
    Хорошие вибрации смотреть онлайн бесплатно в хорошем качестве


    Вы не можете начинать темы
    Вы не можете отвечать на сообщения
    Вы не можете редактировать свои сообщения
    Вы не можете удалять свои сообщения
    Вы не можете голосовать в опросах
    Вы не можете прикреплять файлы к сообщениям
    Вы можете скачивать файлы