новый адрес пиратбит piratbit
Мега распродажа FORZA HORIZON 4 ULTIMATE+ВСЕ DLC+ОНЛАЙН всего за 499р. 349 руб. (супер цена). Внимание количество ограничено!!!

iTunes

1+1

iTunes

мы

iTunes

1

iTunes

Чернобыль

iTunes

Ральф против интернета

Лицензия

ПШазам

Лицензия

Игра престолов

Лицензия

30
pack

ВАЖНО

!!Акция!!

Alien_RageХит недели

RePack

Resident Evil 21

ИГРА 18+

pack

RePack

Metro:Exodus

!!Акция!!

Alien_Rage

RePack

fifa19

RePack

Assassins Creed: Odyssey

RePack

NEED FOR SPEED™ PAYBACK

3 сезон

9 сезон

Бесстыжие 9 сезон

Все сериалы

все сериалы на PB.wtf

RePack

FAR CRY 5
Ребята, катастрофически не хватает 1900р. для оплаты серверов за Октябрь (всвязи с блокировками трафик упал в 3 раза), 1-2р., выручайте.
  

Ремагенский мост / The Bridge at Remagen (Джон Гиллермин) [1969 г.,Военный, драма, DVDRip] DVO + Original pb.wtf

Ремагенский мост через торрент pb.wtf

Размер: 2.05 GB | Добавлен: 5 лет 7 мес. назад | Торрент скачан:3 раза
Скачать  

25-03-2014 18:40 Ремагенский мост Скачать торрент  

Ремагенский мост / The Bridge at Remagen 1969 США United Artists Военный, драма 01:51:49 Профессиональный двухголосый Джон ГиллерминПродюссер: Дэвид Л. Волпер, Джулиан Людвиг, Теодор ШтрауссСценарий: Ричард Йэтс, Уильям Робертс, Роджер О. Хёрсон Джордж Сигал, Бен Газзара, Роберт Вон, Брэдфорд Диллман, Петер Ван Эйк, Ганс Кристиан Блех, Хейнц Рейнке, Хоакин Хансен, Соня Зиманн 7 марта 1945 года. Вторая мировая война подходит к концу. Но сопротивление гитлеровской армии нарастает с каждым днем, и каждое сражение становится все более кровавым. 9-я дивизия армии США рассчитывает взять штурмом мост Людендорф в городке Ремагене. Он является стратегически важным объектом для переброски немецких войск через Рейн и обеспечивает отступление вглубь страны. Это последний сохранившийся мост через Рейн. На кону стоит судьба 50000 немецких солдат. Тот, кто контролирует мост – контролирует доступ к самому сердцу Германии, и немецкое командование готово пожертвовать тысячами солдат, чтобы отбить атаку. Если мост будет разрушен, они окажутся в ловушке, но это не волнует генерала фон Брока. Майор Крюгер не спешит выполнять его приказы, он надеется сберечь людей для решающего сражения... Качество: DVDRip
Формат: AVI
Видео кодек: XviD
Аудио кодек: AC3
Видео: Xvid 672x288, 25.00fps, 2 221 Kbps
Аудио#1: Dolby AC3, 48000Hz, stereo, 192kbps Rus
Аудио#2: Dolby AC3, 48000Hz, stereo, 192kbps Eng
Релиз от: grom1601





General
Complete name : I:Ремагенский мостRemagenskiy.most.1969.DVDRip.avi
Format : AVI
Format/Info : Audio Video Interleave
Format profile : OpenDML
File size : 2.05 GiB
Duration : 1h 51mn
Overall bit rate : 2 624 Kbps
Writing application : FairUse Wizard - http://fairusewizard.com
Writing library : The best and REALLY easy backup tool

Video
ID : 0
Format : MPEG-4 Visual
Format profile : Advanced Simple@L5
Format settings, BVOP : 1
Format settings, QPel : No
Format settings, GMC : No warppoints
Format settings, Matrix : Default (MPEG)
Muxing mode : Packed bitstream
Codec ID : XVID
Codec ID/Hint : XviD
Duration : 1h 51mn
Bit rate : 2 221 Kbps
Width : 672 pixels
Height : 288 pixels
Display aspect ratio : 2.35:1
Frame rate : 25.000 fps
Color space : YUV
Chroma subsampling : 4:2:0
Bit depth : 8 bits
Scan type : Progressive
Compression mode : Lossy
Bits/(Pixel*Frame) : 0.459
Stream size : 1.73 GiB (85%)
Writing library : XviD 1.2.1 (UTC 2008-12-04)

Audio #1
ID : 1
Format : AC-3
Format/Info : Audio Coding 3
Mode extension : CM (complete main)
Codec ID : 2000
Duration : 1h 51mn
Bit rate mode : Constant
Bit rate : 192 Kbps
Channel(s) : 2 channels
Channel positions : Front: L R
Sampling rate : 48.0 KHz
Bit depth : 16 bits
Compression mode : Lossy
Stream size : 154 MiB (7%)
Alignment : Split accross interleaves
Interleave, duration : 40 ms (1.00 video frame)
Interleave, preload duration : 500 ms

Audio #2
ID : 2
Format : AC-3
Format/Info : Audio Coding 3
Mode extension : CM (complete main)
Codec ID : 2000
Duration : 1h 51mn
Bit rate mode : Constant
Bit rate : 192 Kbps
Channel(s) : 2 channels
Channel positions : Front: L R
Sampling rate : 48.0 KHz
Bit depth : 16 bits
Compression mode : Lossy
Stream size : 154 MiB (7%)
Alignment : Split accross interleaves
Interleave, duration : 40 ms (1.00 video frame)
Interleave, preload duration : 500 ms

pb.wtf



Скачать Ремагенский мост через торрент http://pic.kartinco.top/images/6/phsah.jpg Скачать фильм Ремагенский мост через торрент бесплантно в хорошем качестве Ремагенский мост / The Bridge at Remagen 1969 США United Artists Военный, драма 01:51:49 Профессиональный двухголосый Джон ... 10 10 4
Info! Золотая раздача, скачанное не засчитывается.
Торрент: Зарегистрирован [2014-03-25 18:40] · скачан: 3 раз
Статус: √ проверено
Размер: 2.05 GB
Как cкачать? Как скачать Ремагенский мост через торрент | qTorrent


>> Регистрируемся здесь <<






Отзывы и комментарии о схеме читаем и пишем здесь: ---> Отзывы и комментарии о схеме

Новые благодарочки в телеграм довольных пользователей:
скриншот   скриншот   скриншот   скриншот   скриншот

25-03-2014 19:07 Ремагенский мост Скачать торрент  

lug30
Оформление прикольно сделано yespb.wtf



25-03-2014 19:10 Ремагенский мост Скачать торрент  

Raven писал(а):

lug30
Оформление прикольно сделано yes

Спасибо,думал не понравиться,уж больно объемно pb.wtf



25-03-2014 19:23 Ремагенский мост Скачать торрент  

lug30
Продолжаю - новое слово в оформлении. yes Боюсь, правда, что ты в таком же стиле оформишь фильм "Техасская резня бензопилой" ... worrypb.wtf



25-03-2014 19:30 Ремагенский мост Скачать торрент  

yes :rofle:pb.wtf



    Дорогой пользователь! Огромная просьба, поблагодарите релизера, оцените раздачу и оставьте свои комментарий, если Вы скачали Ремагенский мост через торрент бесплатно! Внесите свою лепту в развитие PiratBit!
    Комментировать посты могут только пользователи прошедшие не сложную регистрацию
    Показать сообщения:    

    Ремагенский мост через торрент
    Скачать бесплатно Ремагенский мост
    Ремагенский мост скачать торрент
    Ремагенский мост смотреть онлайн
    Cкачать фильм Ремагенский мост бесплатно
    Ремагенский мост скачать торрент в хорошем качестве
    Ремагенский мост смотреть онлайн бесплатно в хорошем качестве


    Вы не можете начинать темы
    Вы не можете отвечать на сообщения
    Вы не можете редактировать свои сообщения
    Вы не можете удалять свои сообщения
    Вы не можете голосовать в опросах
    Вы не можете прикреплять файлы к сообщениям
    Вы можете скачивать файлы