Ссылка на приватное зеркало нашего сайта всего за 1$. Внимание количество ограничено!!!

2 сезон

iTunes

1 сезон

1

2 сезон

2 сезон

iTunes

1 сезон

RePack

30

Ultimate

ВАЖНО

ИГРА 18+

pack

RePack

MK11
pack

Забери бонус

RePack

jed

!!Акция!!

Alien_Rage

RePack

fifa19

RePack

Assassins Creed: Odyssey

RePack

NEED FOR SPEED™ PAYBACK

4 сезон

9 сезон

Бесстыжие 9 сезон

Все сериалы

все сериалы на PB.wtf

RePack

FAR CRY 5
  

Реальная белка / The Nut Job (Питер Лепениотис / Peter Lepeniotis) [2013, Канада, Корея Южная, США, мультфильм, комедия, приключения, HDRip,Профессиональный (многоголосый, закадровый) [BaibaKo] pb.wtf

Реальная белка через торрент pb.wtf

Размер: 1.37 GB | Добавлен: 6 лет 7 мес. назад | Торрент скачан:2397 раз
Скачать  

05-04-2014 01:05 Реальная белка Скачать торрент  

Реальная белка / The Nut Job

«Береги свои орешки!»
  • Год выпуска: 2013
  • Страна: Канада, Корея Южная, США
  • Жанр: мультфильм, комедия, приключения, семейный
  • Продолжительность: 01:25:54
  • Перевод: Профессиональный (многоголосый, закадровый) [BaibaKo]
  • Субтитры: Нет
    • Режиссер: Питер Лепениотис / Peter Lepeniotis

    • В ролях:

      Уилл Арнетт (Surly, озвучка), Брендан Фрейзер (Grayson, озвучка), Лиам Нисон (Raccoon, озвучка), Кэтрин Хайгл (Andie, озвучка), Стивен Лэнг (King, озвучка), Майя Рудольф (Precious, озвучка), Джефф Данэм (Mole, озвучка), Гэбриел Иглесиас (Jimmy, озвучка), Сара Гадон (Lana, озвучка), Джеймс Ранкин (Fingers, озвучка), Скотт Яфе (Lucky, озвучка), Джо Пинг (Johnny, озвучка)

    • Описание:
      Пытаясь выжить в городе, неразлучные друзья - белка Злюк и крысёнок Бадди натыкаются на магазин, до краёв набитый их любимым лакомством - орехами. Чувствуя, что «мечты сбываются», приятели планируют величайшее ограбление в истории грызунов. Но тут совсем некстати нарисовались бедные родственники из парка - прямо 13 друзей арахиса! Однако им всем невдомёк, что магазин орехов - лишь прикрытие для банды грабителей, которые намерены вырыть туннель под банк и подменить мешки с деньгами на мешки с теми самыми орехами.
      [/list:u]
      Мировая премьера:11 января 2014

      • Качество: HDRip
      • Формат: AVI
      • Видео кодек: XviD
      • Аудио кодек:AC3
      • Видео: XviD, 720x384 (1.875), 1820 kbps, 23,976 fps, 0,275 bpp
      • Аудио: AC3 / 5.1 / 48 kHz / 448 kbps / 16 bit


      Код:

      General
      Complete name                            : D:\Торенты\Realnaya.Belka.2014.P.HDRip.1400MB.avi
      Format                                   : AVI
      Format/Info                              : Audio Video Interleave
      File size                                : 1.37 GiB
      Duration                                 : 1h 25mn
      Overall bit rate                         : 2 278 Kbps
      Writing application                      : VirtualDubMod 1.5.10.2 (build 2540/release)
      Writing library                          : VirtualDubMod build 2540/release

      Video
      ID                                       : 0
      Format                                   : MPEG-4 Visual
      Format profile                           : Advanced Simple@L5
      Format settings, BVOP                    : 2
      Format settings, QPel                    : No
      Format settings, GMC                     : No warppoints
      Format settings, Matrix                  : Custom
      Codec ID                                 : XVID
      Codec ID/Hint                            : XviD
      Duration                                 : 1h 25mn
      Bit rate                                 : 1 821 Kbps
      Width                                    : 720 pixels
      Height                                   : 384 pixels
      Display aspect ratio                     : 1.875
      Frame rate                               : 23.976 fps
      Color space                              : YUV
      Chroma subsampling                       : 4:2:0
      Bit depth                                : 8 bits
      Scan type                                : Progressive
      Compression mode                         : Lossy
      Bits/(Pixel*Frame)                       : 0.275
      Stream size                              : 1.09 GiB (80%)
      Writing library                          : XviD 1.2.1 (UTC 2008-12-04)

      Audio
      ID                                       : 1
      Format                                   : AC-3
      Format/Info                              : Audio Coding 3
      Mode extension                           : CM (complete main)
      Codec ID                                 : 2000
      Duration                                 : 1h 25mn
      Bit rate mode                            : Constant
      Bit rate                                 : 448 Kbps
      Channel(s)                               : 6 channels
      Channel positions                        : Front: L C R, Side: L R, LFE
      Sampling rate                            : 48.0 KHz
      Bit depth                                : 16 bits
      Compression mode                         : Lossy
      Stream size                              : 275 MiB (20%)
      Alignment                                : Split accross interleaves
      Interleave, duration                     : 42 ms (1.00 video frame)
      Interleave, preload duration             : 500 ms

      Скриншоты:

      Каталог Новинок (Фильмы-трейлеры, Игры, Сериалы, Мультфильмы)
      © Оформление by Raven
      pb.wtf



  • Скачать Реальная белка через торрент http://i3.imageban.ru/out/2014/04/05/e0c426854ae5e1df11c42bacbeae12ce.png Скачать фильм Реальная белка через торрент бесплантно в хорошем качестве Описание:Пытаясь выжить в городе, неразлучные друзья - белка Злюк и крысёнок Бадди натыкаются на магазин, до краёв набитый их любимым ... 9.7 10 55
    Info! Золотая раздача, скачанное не засчитывается.
    Торрент: Зарегистрирован [2014-04-09 20:20] · скачан: 2 397 раз
    Статус: √ проверено
    Размер: 1.37 GB
    Как cкачать? Как скачать Реальная белка через торрент | qTorrent

    % Раздел Тема Автор DL S | L
    3D Мультфильмы [ 11.96 GB ] Реальная белка 2 в 3Д / The Nut Job 2: Nutty by Nature 3D [2017 мультфильм BDRip 1080p] OverUnder / Вертикальная стереопара DUB serega768 Скачать
    1 | 0
    3D Мультфильмы [ 9.03 GB ] Реальная белка 2 3Д / The Nut Job 2: Nutty by Nature 3D [2017 Мультфильм BDRip 1080p] [Half OverUnder / Вертикальная анаморфная стереопара] DUB bober100 Скачать
    1 | 0
    Иностранные мультфильмы [ 747 MB ] Реальная белка 2 / The Nut Job 2: Nutty by Nature [2017 Мультфильм BDRip] bober100 Скачать
    1 | 0
    Зарубежные Мультфильмы (BDRip 1080p, 720p, Blu-ray, BD-Remux) [ 6.66 GB ] Реальная белка 2 / The Nut Job 2: Nutty by Nature [2017 Мультфильм BDRip 1080p] bober100 Скачать
    1 | 0
    Иностранные мультфильмы [ 1.42 GB ] Реальная белка 2 / The Nut Job 2: Nutty by Nature [2017 мультфильм BDRip] - Twi7ter Скачать
    2 | 0
    Зарубежные Мультфильмы (BDRip 1080p, 720p, Blu-ray, BD-Remux) [ 5.48 GB ] Реальная белка 2 / The Nut Job 2: Nutty by Nature [2017 мультфильм BDRip] [720p] [] killermax2013 Скачать
    1 | 0
    Фильмы без перевода [ 2.78 GB ] Реальная белка 2 / The Nut Job 2: Nutty by Nature [2017 мультфильм WEB-DL 720p] [ENG] killermax2013 Скачать
    1 | 0

    28-11-2019 20:33  

    Отключить всю рекламу на сайте

    19-04-2014 01:27 Реальная белка Скачать торрент  

    Мда , с названиями у всех большие проблемыpb.wtf



      Дорогой пользователь! Огромная просьба, поблагодарите релизера, оцените раздачу и оставьте свои комментарий, если Вы скачали Реальная белка через торрент бесплатно! Внесите свою лепту в развитие PiratBit!
      Комментировать посты могут только пользователи прошедшие не сложную регистрацию
      Показать сообщения:    

      Реальная белка через торрент
      Скачать бесплатно Реальная белка
      Реальная белка скачать торрент
      Реальная белка смотреть онлайн
      Cкачать фильм Реальная белка бесплатно
      Реальная белка скачать торрент в хорошем качестве
      Реальная белка смотреть онлайн бесплатно в хорошем качестве


      Вы не можете начинать темы
      Вы не можете отвечать на сообщения
      Вы не можете редактировать свои сообщения
      Вы не можете удалять свои сообщения
      Вы не можете голосовать в опросах
      Вы не можете прикреплять файлы к сообщениям
      Вы можете скачивать файлы