Доктор Стрэндж

Лицензия

Добыча

Дубляж

Дом дракона

1 сезон

Тор

Дубляж

В эфире

Дубляж

Там, где раки поют

MVO

Властелин колец

1 сезон

Deluxe

pack

Рекомендуем

30

Пиратка

ВАЖНО

ВАЖНО

Ghostwire

Пиратка

jed

RePack

nioh2

RePack

RDR2

RePack

NEED FOR SPEED™ PAYBACK

RePack

скачать торрент

Кинопоиск HD

Острые козырьки 6 сезон

6 сезон

FAR CRY 6

RePack

скачать торрент

Лицензия

скачать торрент

MVO

1

1 сезон

скачать торрент

1 сезон

скачать торрент

Лицензия

  

Мальчишник в Вегасе / The Hangover (Тодд Филлипс / Todd Phillips) [2009 г., Комедия, HDRip] [UNRATED] [AVO] (А.Карповский)

Мальчишник в Вегасе через торрент pb.wtf

Размер: 1.46 GB | Добавлен: 8 лет 7 мес. назад | Торрент скачан:286 раз
Смотреть онлайн | Скачать   

10-04-2014 15:33 Мальчишник в Вегасе Скачать торрент  

Мальчишник в Вегасе / The Hangover [UNRATED]
Год выпуска: 2009
Страна: США
Жанр: Комедия
Продолжительность: 01:47:53
Перевод: Авторский (Одноголосый)[А.Карповский]
Cубтитры: нет

Режиссер: Тодд Филлипс / Todd Phillips

В ролях: Брэдли Купер /Bradley Cooper/, Эд Хелмс /Ed Helms/, Зак Галифианакис /Zach Galifianakis/, Джастин Барта /Justin Bartha/, Хэзер Грэм /Heather Graham/, Джеффри Тэмбор /Jeffrey Tambor

Описание: Они мечтали устроить незабываемый мальчишник в Вегасе. Но теперь им действительно необходимо вспомнить, что именно происходило! Чей ребенок сидит в шкафу шикарного номера отеля? Как в ванную попал тигр? Почему у одного из них нет зуба? И, самое главное, куда делся жених?
То, что парни вытворяли на вечеринке, не идет ни в какое сравнение с тем, что им придется сделать на трезвую голову, когда они будут шаг за шагом восстанавливать события прошлой ночи, каждый раз — новая зацепка.



Качество видео: HDRip
Формат видео: AVI
Видео кодек: XviD
Аудио кодек: AC3
Видео: 720x304 (2.37:1), 23.976 fps, XviD MPEG-4 ~1409 kbps avg, 0.27 bit/pixel
Аудио: 48 kHz, AC3 Dolby Digital, 3/2 (L,C,R,l,r) + LFE ch, ~448.00 kbps avg
Звуковая дорожка (за нее спасибо Mister X), была наложена на более качественный рип.
Формат : AVI
Формат/Информация : Audio Video Interleave
Размер файла : 1,46 Гбайт
Продолжительность : 1 ч. 47 м.
Общий поток : 1933 Кбит/сек
Программа кодирования : VirtualDubMod 1.5.4.1 (build 2178/release)
Библиотека кодирования : VirtualDubMod build 2178/release
Видео
Идентификатор : 0
Формат : MPEG-4 Visual
Профиль формата : Advanced [email protected]
Параметр BVOP формата : 1
Параметр QPel формата : Нет
Параметр GMC формата : Без точки перехода
Параметр матрицы формата : Выборочная
Идентификатор кодека : XVID
Идентификатор кодека/Подсказка : XviD
Продолжительность : 1 ч. 47 м.
Битрейт : 1476 Кбит/сек
Ширина : 720 пикселей
Высота : 304 пикселя
Соотношение сторон : 2,35:1
Частота кадров : 23,976 кадра/сек
Цветовое пространство : YUV
Субдискретизация насыщенности : 4:2:0
Битовая глубина : 8 бит
Тип развёртки : Прогрессивная
Метод сжатия : С потерями
Бит/(Пиксели*Кадры) : 0.281
Размер потока : 1,11 Гбайт (76%)
Библиотека кодирования : XviD 63
Аудио
Идентификатор : 1
Формат : AC-3
Формат/Информация : Audio Coding 3
Расширение режима : CM (complete main)
Параметр Endianness формата : Big
Идентификатор кодека : 2000
Продолжительность : 1 ч. 47 м.
Вид битрейта : Постоянный
Битрейт : 448 Кбит/сек
Каналы : 6 каналов
Расположение каналов : Front: L C R, Side: L R, LFE
Частота : 48,0 КГц
Битовая глубина : 16 бит
Метод сжатия : С потерями
Размер потока : 346 Мбайт (23%)
Выравнивание : Разделение по промежуткам
Продолжительность промежутка : 42 мс. (1,00 видеокадр)
Время предзагрузки промежутка : 500 мс.



Скачать Мальчишник в Вегасе через торрент http://i60.fastpic.ru/big/2014/0410/f5/310575f3a04801f087a0710596d440f5.jpg Скачать, смотреть онлайн Мальчишник в Вегасе бесплантно в хорошем качестве Описание: Они мечтали устроить незабываемый мальчишник в Вегасе. Но теперь им действительно необходимо вспомнить, что именно происходило! ... 10 10 6
Торрент: Зарегистрирован [2014-04-10 15:33] · скачан: 286 раз
Статус: √ проверено
Размер: 1.46 GB
Как cкачать? Как скачать Мальчишник в Вегасе через торрент | UTorrent

% Раздел Тема Автор DL S | L
Фильмы [HD 720p, 1080p] (Хороший звук DUB, MVO) [ 6.66 GB ] Мальчишник 2: Из Вегаса в Бангкок / The Hangover Part II | | 720p diletant Скачать
1 | 0
Фильмы с авторской озвучкой [ 1.45 GB ] Похмелье 2 / Мальчишник 2: Из Вегаса в Бангкок / The Hangover Part II | AVO | HDRip killermax2013 Скачать
1 | 0
Фильмы 2009 [ 2.19 GB ] Мальчишник в Вегасе / The Hangover [Unrated | | BDRip Wegas Digital Скачать
1 | 0
Фильмы 2011 [ 3.03 GB ] Похмелье. Часть 2 / Мальчишник 2: Из Вегаса в Бангкок / The Hangover Part II | ng | HDRip-AVC oartemka178 Скачать
1 | 0
Фильмы (DVD фильмы) [ 5.12 GB ] Мальчишник 2: Из Вегаса в Бангкок / The Hangover Part II | | Мальчишник 2: Из Вегаса в Бангкок / The Hangover Part II (Тодд Филлипс / Todd Phillips voovaz Скачать
1 | 0

28-11-2019 20:33  


Отключить вcю реклaмy на сайте, в т.ч. и в плеере онлайн просмотра!

    Дорогой пользователь! Огромная просьба, поблагодарите релизера, оцените раздачу и оставьте свои комментарий, если Вы скачали Мальчишник в Вегасе через торрент бесплатно!!
    Комментировать посты могут только пользователи прошедшие не сложную регистрацию
    Показать сообщения:    


    Мальчишник в Вегасе через торрент
    Скачать бесплатно Мальчишник в Вегасе
    Мальчишник в Вегасе скачать торрент
    Мальчишник в Вегасе смотреть онлайн
    Cкачать фильм Мальчишник в Вегасе бесплатно
    Мальчишник в Вегасе скачать торрент в хорошем качестве
    Мальчишник в Вегасе смотреть онлайн бесплатно в хорошем качестве
    Вы не можете начинать темы
    Вы не можете отвечать на сообщения
    Вы не можете редактировать свои сообщения
    Вы не можете удалять свои сообщения
    Вы не можете голосовать в опросах
    Вы не можете прикреплять файлы к сообщениям
    Вы можете скачивать файлы
    Мальчишник в Вегасе / The Hangover [2009 г., Комедия, HDRip] [UNRATED] [AVO] смотреть онлайн, скачать торрент picoco.icu