Ссылка на приватное зеркало нашего сайта всего за 1$. Внимание количество ограничено!!!

2 сезон

iTunes

1 сезон

1

2 сезон

2 сезон

iTunes

1 сезон

RePack

30

Ultimate

ВАЖНО

ИГРА 18+

pack

RePack

MK11
pack

Забери бонус

RePack

jed

!!Акция!!

Alien_Rage

RePack

fifa19

RePack

Assassins Creed: Odyssey

RePack

NEED FOR SPEED™ PAYBACK

4 сезон

9 сезон

Бесстыжие 9 сезон

Все сериалы

все сериалы на PB.wtf

RePack

FAR CRY 5
  

Бела Кисс: Пролог / Bela Kiss: Prologue (Lucien Förstner) [2013, Германия, ужасы, триллер, детектив, HDRip,Любительский (двухголосый)[den904, DeadSno] pb.wtf

Бела Кисс: Пролог через торрент pb.wtf

Размер: 1.46 GB | Добавлен: 6 лет 7 мес. назад | Торрент скачан:310 раз
Скачать  

20-04-2014 19:51 Бела Кисс: Пролог Скачать торрент  

Бела Кисс: Пролог / Bela Kiss: Prologue

  • Год выпуска: 2013
  • Страна:Германия
  • Жанр:ужасы, триллер, детектив
  • Продолжительность:01:46:19
  • Перевод:Любительский (двухголосый)[den904, DeadSno]
  • Субтитры: Нет
  • Режиссер: Lucien Förstner

  • В ролях:

    Кристина Клебе (Julia), Рудольф Мартин (Bela Kiss), Фабиан Стамм (Nikolai), Бен Бела Бом (Felix), Янина Элькин (Sophie), Angus McGruther (Peter), Джулия Хорват (Ms. Jakubec), Йорг Козловски (Killer), Пир Мартини (Mr. Pester-Haigh), Роман Лайтнер (Förster), Колльен Ульмен-Фернендес (Female Guest), Мари Майер (Hitchhiker)

    • Описание:
      Béla Kiss был одним из самых жестоких серийных убийц, который убивал молодых женщин в начале первой мировой войны. Обескровленные и заспиртованные тела он хранил в металлических бочках. По слухам, его еще видели десятилетиями позже, в различных частях мира. Он никогда так и не был найден и пойман, местонахождение этого человека неизвестно, даже сегодня. Почти столетие спустя, пятеро грабителей банка, спасаясь от полиции, в поисках убежища, прячутся в отдаленном отеле. На их беду в этом отеле проживает, творит и скрывает свои страшные дела некий человек. Герои проникают в тайну, узнают о существующем пути в прошлое, которым и пользуется таинственный обитатель отеля - человек по имени Бела Кисс...

    Мировая премьера:10 января 2013

    • Качество: HDRip
    • Формат: AVI
    • Видео кодек: XviD
    • Аудио кодек:AC3
    • Видео: XviD, 720x304 (2.35:1), 1514 kbps, 23,976 fps, 0,289 bpp
    • Аудио: AC3 / 5.1 / 48 kHz / 448 kbps / 16 bit


    Код:

    General
    Complete name                            : D:\Торенты\Bela.Kiss.Prologue.L2.HDRip.1.46Gb.avi
    Format                                   : AVI
    Format/Info                              : Audio Video Interleave
    File size                                : 1.46 GiB
    Duration                                 : 1h 46mn
    Overall bit rate                         : 1 972 Kbps
    Writing application                      : VirtualDubMod 1.5.10.3 | www.virtualdub-fr.org || (build 2550/release)
    Writing library                          : VirtualDubMod build 2550/release

    Video
    ID                                       : 0
    Format                                   : MPEG-4 Visual
    Format profile                           : Advanced Simple@L5
    Format settings, BVOP                    : 1
    Format settings, QPel                    : No
    Format settings, GMC                     : No warppoints
    Format settings, Matrix                  : Custom
    Codec ID                                 : XVID
    Codec ID/Hint                            : XviD
    Duration                                 : 1h 46mn
    Bit rate                                 : 1 514 Kbps
    Width                                    : 720 pixels
    Height                                   : 304 pixels
    Display aspect ratio                     : 2.35:1
    Frame rate                               : 23.976 fps
    Color space                              : YUV
    Chroma subsampling                       : 4:2:0
    Bit depth                                : 8 bits
    Scan type                                : Progressive
    Compression mode                         : Lossy
    Bits/(Pixel*Frame)                       : 0.289
    Stream size                              : 1.12 GiB (77%)
    Writing library                          : XviD 73

    Audio
    ID                                       : 1
    Format                                   : AC-3
    Format/Info                              : Audio Coding 3
    Mode extension                           : CM (complete main)
    Codec ID                                 : 2000
    Duration                                 : 1h 46mn
    Bit rate mode                            : Constant
    Bit rate                                 : 448 Kbps
    Channel(s)                               : 6 channels
    Channel positions                        : Front: L C R, Side: L R, LFE
    Sampling rate                            : 48.0 KHz
    Bit depth                                : 16 bits
    Compression mode                         : Lossy
    Stream size                              : 341 MiB (23%)
    Alignment                                : Split accross interleaves
    Interleave, duration                     : 42 ms (1.00 video frame)
    Interleave, preload duration             : 500 ms

    Скриншоты:

    Каталог Новинок (Фильмы-трейлеры, Игры, Сериалы, Мультфильмы)

    © Оформление by Raven
    pb.wtf



  • Скачать Бела Кисс: Пролог через торрент http://pic.kartinco.top/images/6/o7usr.jpg Скачать фильм Бела Кисс: Пролог через торрент бесплантно в хорошем качестве Описание:Béla Kiss был одним из самых жестоких серийных убийц, который убивал молодых женщин в начале первой мировой войны. Обескровленные ... 9.8 10 10
    Торрент: Зарегистрирован [2014-04-20 19:51] · скачан: 310 раз
    Статус: T временная
    Размер: 1.46 GB
    Как cкачать? Как скачать Бела Кисс: Пролог через торрент | qTorrent

    28-11-2019 20:33  

    Отключить всю рекламу на сайте

    20-04-2014 21:35 Бела Кисс: Пролог Скачать торрент  

    отпишитесь как фильм?pb.wtf



    21-04-2014 07:58 Бела Кисс: Пролог Скачать торрент  

    Немцы неплохие фильмы снимают. Надо будет глянуть.pb.wtf



      Дорогой пользователь! Огромная просьба, поблагодарите релизера, оцените раздачу и оставьте свои комментарий, если Вы скачали Бела Кисс: Пролог через торрент бесплатно! Внесите свою лепту в развитие PiratBit!
      Комментировать посты могут только пользователи прошедшие не сложную регистрацию
      Показать сообщения:    

      Бела Кисс: Пролог через торрент
      Скачать бесплатно Бела Кисс: Пролог
      Бела Кисс: Пролог скачать торрент
      Бела Кисс: Пролог смотреть онлайн
      Cкачать фильм Бела Кисс: Пролог бесплатно
      Бела Кисс: Пролог скачать торрент в хорошем качестве
      Бела Кисс: Пролог смотреть онлайн бесплатно в хорошем качестве


      Вы не можете начинать темы
      Вы не можете отвечать на сообщения
      Вы не можете редактировать свои сообщения
      Вы не можете удалять свои сообщения
      Вы не можете голосовать в опросах
      Вы не можете прикреплять файлы к сообщениям
      Вы можете скачивать файлы