Достать ножи: Стеклянная луковица

MVO

Добыча

Дубляж

Уэнсдэй

1 сезон

Тор

Дубляж

13 клиническая

1 сезон

Жестокая ночь

MVO

Одни из нас

1 сезон

Deluxe

pack

Рекомендуем

30

Пиратка

ВАЖНО

ВАЖНО

Ghostwire

Пиратка

jed

RePack

nioh2

RePack

RDR2

RePack

NEED FOR SPEED™ PAYBACK

RePack

скачать торрент

Кинопоиск HD

Острые козырьки 6 сезон

6 сезон

FAR CRY 6

RePack

скачать торрент

Лицензия

скачать торрент

MVO

1

1 сезон

скачать торрент

1 сезон

скачать торрент

Лицензия

  

Мозарт Рок Опера / Mozart, l'opera rock (Оливье Даан (Olivier Dahan)) [2010 г., мюзикл, рок-опера, DVDRip, Субтитры]

Мозарт Рок Опера через торрент pb.wtf

Размер: 2.18 GB | Добавлен: 8 лет 9 мес. назад | Торрент скачан:98 раз
| Скачать | Поддержите нас   

26-04-2014 14:28 Мозарт Рок Опера Скачать торрент  

Мозарт Рок Опера / Mozart l'opera rock
Год выпуска: 2010
Страна: Франция
Жанр: мюзикл, рок-опера
Продолжительность: 51:06, 01:09:48.
Перевод: Субтитры
Тип релиза: лицензия
Субтитры: Русские

Режиссер: Оливье Даан (Olivier Dahan)

В ролях: Микеланджело Локонте (Mikelangelo Loconte) — Вольфганг Амадей Моцарт
Флоран Мот (Florent Mothe) — Антонио Сальери
Солаль (Solal) — Леопольд, отец Моцарта
Маэва Мелин (Maeva Meline) — Наннерль, старшая сестра Моцарта
Мелисса Марс (Melissa Mars) — Алоиза Вебер, первая любовь Моцарта
Клэр Перо (Claire Perot) — Констанс Вебер, жена Моцарта, младшая сестра Алоизии
Мерван Рим (Merwan Rim) — трактирщик и демон-клоун
Эстель Мишо (Estelle Micheau) — Дива (Катарина Кавальери)

Ямин Диб (Yamin Dib) - граф Розенберг и посетитель таверны (Акт I)
Дельфин Грандсар (Delphine Grandsart) - Сесилия Вебер
Матиа Жун (Mathias Jung) - Коллоредо, опекун и незнакомец
Джоселин Санд (Jocelyne Sand) - Анна Мария, мать Моцарта
Патрис Мактав (Patrice Maktaw), - Де Понте
Жан-Мишель Монье (Jean-Michel Meunier) - Фридолин Вебер и Иосиф второй

Описание: Французский мюзикл Дова Аттья и Альбера Коэна, посвященный истории жизни Вольфганга Амадея Моцарта. Этот мюзикл считается одним из самых коммерчески успешных проектов среди вышедших в 2009—2010 гг., с числом проданных билетов более 800 000... Судьба Моцарта преподносит ему испытание: Коллоредо сменяет принца-архиепископа Зальцбурга. Новый правитель — строгий и авторитарный человек, не воспринимающий музыку молодого композитора и не терпящий его пыл и дерзость. Жизнь в Зальцбурге становится для двадцатилетнего юноши невыносимой. Он решает оставить свой родной город и уехать с матерью на поиски лучшего будущего в европейских столицах.

Качество: DVDRip
Формат: AVI
Видео кодек: XviD
Аудио кодек: AC3
Видео: MPEG-4 Visual, ~ 1600 Кбит/сек, 704 x 400 (1.760), 25.000 fps, 0.23 bit/pixel
Аудио#1: AC-3, 448 Кбит/сек, 6 каналов, 48,0 КГц

Общее
Полное имя : D:\Установочники игр\Mozart.l.opera.rock.(2.chasti.iz.2.plus.bonus).2010.DVDRip\Mozart.l.opera.rock.(1.iz.2).2010.DVDRip.avi
Формат : AVI
Формат/Информация : Audio Video Interleave
Размер файла : 751 Мбайт
Продолжительность : 51 м.
Общий поток : 2054 Кбит/сек
Название фильма : Mozart, l'opera rock. Part I
Режиссёр : Rip by MC
Жанр : Musical
Программа кодирования : VirtualDubMod 1.5.4.1 (build 2066/release)
Формат оригинала/Имя : Music Video
Примечание : www.kinozal.tv

Видео
Идентификатор : 0
Формат : MPEG-4 Visual
Профиль формата : Advanced [email protected]
Параметр BVOP формата : 2
Параметр QPel формата : Нет
Параметр GMC формата : Без точки перехода
Параметр матрицы формата : Default (MPEG)
Идентификатор кодека : XVID
Идентификатор кодека/Подсказка : XviD
Продолжительность : 51 м.
Битрейт : 1596 Кбит/сек
Ширина : 704 пикселя
Высота : 400 пикселей
Соотношение сторон : 16:9
Частота кадров : 25,000 кадров/сек
Цветовое пространство : YUV
Субдискретизация насыщенности : 4:2:0
Битовая глубина : 8 бит
Тип развёртки : Прогрессивная
Метод сжатия : С потерями
Бит/(Пиксели*Кадры) : 0.227
Размер потока : 583 Мбайт (78%)
Библиотека кодирования : XviD 64

Аудио
Идентификатор : 1
Формат : AC-3
Формат/Информация : Audio Coding 3
Идентификатор кодека : 2000
Продолжительность : 51 м.
Вид битрейта : Постоянный
Битрейт : 448 Кбит/сек
Каналы : 6 каналов
Частота : 48,0 КГц
Метод сжатия : С потерями
Размер потока : 164 Мбайт (22%)
Выравнивание : Разделение по промежуткам
Продолжительность промежутка : 40 мс. (1,00 видеокадр)
Время предзагрузки промежутка : 500 мс.

Общее
Полное имя : D:\Установочники игр\Mozart.l.opera.rock.(2.chasti.iz.2.plus.bonus).2010.DVDRip\Mozart.l.opera.rock.(1.iz.2).2010.DVDRip.srt
Формат : SubRip
Размер файла : 46,0 Кбайт

Текст
Формат : SubRip
Метод сжатия : Без потерь

Общее
Полное имя : D:\Установочники игр\Mozart.l.opera.rock.(2.chasti.iz.2.plus.bonus).2010.DVDRip\Mozart.l.opera.rock.(2.iz.2).2010.DVDRip.avi
Формат : AVI
Формат/Информация : Audio Video Interleave
Размер файла : 1021 Мбайт
Продолжительность : 1 ч. 9 м.
Общий поток : 2046 Кбит/сек
Название фильма : Mozart, l'opera rock. Part II
Режиссёр : Rip by MC
Жанр : Musical
Программа кодирования : VirtualDubMod 1.5.4.1 (build 2066/release)
Формат оригинала/Имя : Music Video
Примечание : www.kinozal.tv

Видео
Идентификатор : 0
Формат : MPEG-4 Visual
Профиль формата : Advanced [email protected]
Параметр BVOP формата : 2
Параметр QPel формата : Нет
Параметр GMC формата : Без точки перехода
Параметр матрицы формата : Default (MPEG)
Идентификатор кодека : XVID
Идентификатор кодека/Подсказка : XviD
Продолжительность : 1 ч. 9 м.
Битрейт : 1588 Кбит/сек
Ширина : 704 пикселя
Высота : 400 пикселей
Соотношение сторон : 16:9
Частота кадров : 25,000 кадров/сек
Цветовое пространство : YUV
Субдискретизация насыщенности : 4:2:0
Битовая глубина : 8 бит
Тип развёртки : Прогрессивная
Метод сжатия : С потерями
Бит/(Пиксели*Кадры) : 0.226
Размер потока : 793 Мбайт (78%)
Библиотека кодирования : XviD 64

Аудио
Идентификатор : 1
Формат : AC-3
Формат/Информация : Audio Coding 3
Идентификатор кодека : 2000
Продолжительность : 1 ч. 9 м.
Вид битрейта : Постоянный
Битрейт : 448 Кбит/сек
Каналы : 6 каналов
Частота : 48,0 КГц
Метод сжатия : С потерями
Размер потока : 224 Мбайт (22%)
Выравнивание : Разделение по промежуткам
Продолжительность промежутка : 40 мс. (1,00 видеокадр)
Время предзагрузки промежутка : 500 мс.

Общее
Полное имя : D:\Установочники игр\Mozart.l.opera.rock.(2.chasti.iz.2.plus.bonus).2010.DVDRip\Mozart.l.opera.rock.(2.iz.2).2010.DVDRip.srt
Формат : SubRip
Размер файла : 56,8 Кбайт

Текст
Формат : SubRip
Метод сжатия : Без потерь

Общее
Полное имя : D:\Установочники игр\Mozart.l.opera.rock.(2.chasti.iz.2.plus.bonus).2010.DVDRip\Mozart.l.opera.rock.(Clip-J.accuse.mon.Pere).2010.DVDRip.avi
Формат : AVI
Формат/Информация : Audio Video Interleave
Размер файла : 42,4 Мбайт
Продолжительность : 3 м. 6 с.
Общий поток : 1905 Кбит/сек
Название фильма : Mozart, l'opera rock. Single - J'accuse mon Pere
Режиссёр : Rip by MC
Жанр : Musical
Программа кодирования : VirtualDubMod 1.5.10.3 | www.virtualdub-fr.org || (build 2550/release)
Формат оригинала/Имя : Music Video
Примечание : www.kinozal.tv

Видео
Идентификатор : 0
Формат : MPEG-4 Visual
Профиль формата : Advanced [email protected]
Параметр BVOP формата : 2
Параметр QPel формата : Нет
Параметр GMC формата : Без точки перехода
Параметр матрицы формата : Default (MPEG)
Идентификатор кодека : XVID
Идентификатор кодека/Подсказка : XviD
Продолжительность : 3 м. 6 с.
Битрейт : 1703 Кбит/сек
Ширина : 704 пикселя
Высота : 400 пикселей
Соотношение сторон : 16:9
Частота кадров : 25,000 кадров/сек
Цветовое пространство : YUV
Субдискретизация насыщенности : 4:2:0
Битовая глубина : 8 бит
Тип развёртки : Прогрессивная
Метод сжатия : С потерями
Бит/(Пиксели*Кадры) : 0.242
Размер потока : 37,9 Мбайт (89%)
Библиотека кодирования : XviD 64

Аудио
Идентификатор : 1
Формат : AC-3
Формат/Информация : Audio Coding 3
Расширение режима : CM (complete main)
Параметр Endianness формата : Big
Идентификатор кодека : 2000
Продолжительность : 3 м. 6 с.
Вид битрейта : Постоянный
Битрейт : 192 Кбит/сек
Каналы : 2 канала
Расположение каналов : Front: L R
Частота : 48,0 КГц
Битовая глубина : 16 бит
Метод сжатия : С потерями
Размер потока : 4,28 Мбайт (10%)
Выравнивание : Разделение по промежуткам
Продолжительность промежутка : 40 мс. (1,00 видеокадр)
Время предзагрузки промежутка : 500 мс.

Общее
Полное имя : D:\Установочники игр\Mozart.l.opera.rock.(2.chasti.iz.2.plus.bonus).2010.DVDRip\Mozart.l.opera.rock.(Clip-L.Assasymphonie).2010.DVDRip.avi
Формат : AVI
Формат/Информация : Audio Video Interleave
Размер файла : 54,8 Мбайт
Продолжительность : 4 м. 1 с.
Общий поток : 1905 Кбит/сек
Название фильма : Mozart, l'opera rock. Single - L'assasymphonie
Режиссёр : Rip by MC
Жанр : Musical
Программа кодирования : VirtualDubMod 1.5.10.3 | www.virtualdub-fr.org || (build 2550/release)
Формат оригинала/Имя : Music Video
Примечание : www.kinozal.tv

Видео
Идентификатор : 0
Формат : MPEG-4 Visual
Профиль формата : Advanced [email protected]
Параметр BVOP формата : 2
Параметр QPel формата : Нет
Параметр GMC формата : Без точки перехода
Параметр матрицы формата : Default (MPEG)
Идентификатор кодека : XVID
Идентификатор кодека/Подсказка : XviD
Продолжительность : 4 м. 1 с.
Битрейт : 1703 Кбит/сек
Ширина : 704 пикселя
Высота : 304 пикселя
Соотношение сторон : 2,35:1
Частота кадров : 25,000 кадров/сек
Цветовое пространство : YUV
Субдискретизация насыщенности : 4:2:0
Битовая глубина : 8 бит
Тип развёртки : Прогрессивная
Метод сжатия : С потерями
Бит/(Пиксели*Кадры) : 0.318
Размер потока : 49,0 Мбайт (89%)
Библиотека кодирования : XviD 64

Аудио
Идентификатор : 1
Формат : AC-3
Формат/Информация : Audio Coding 3
Расширение режима : CM (complete main)
Параметр Endianness формата : Big
Идентификатор кодека : 2000
Продолжительность : 4 м. 1 с.
Вид битрейта : Постоянный
Битрейт : 192 Кбит/сек
Каналы : 2 канала
Расположение каналов : Front: L R
Частота : 48,0 КГц
Битовая глубина : 16 бит
Метод сжатия : С потерями
Размер потока : 5,53 Мбайт (10%)
Выравнивание : Разделение по промежуткам
Продолжительность промежутка : 40 мс. (1,00 видеокадр)
Время предзагрузки промежутка : 500 мс.

Общее
Полное имя : D:\Установочники игр\Mozart.l.opera.rock.(2.chasti.iz.2.plus.bonus).2010.DVDRip\Mozart.l.opera.rock.(Clip-Le.Bien.qui.fait.Mal).2010.DVDRip.avi
Формат : AVI
Формат/Информация : Audio Video Interleave
Размер файла : 41,2 Мбайт
Продолжительность : 3 м. 1 с.
Общий поток : 1905 Кбит/сек
Название фильма : Mozart, l'opera rock. Single - Le Bien qui fait Mal
Режиссёр : Rip by MC
Жанр : Musical
Программа кодирования : VirtualDubMod 1.5.10.3 | www.virtualdub-fr.org || (build 2550/release)
Формат оригинала/Имя : Music Video
Примечание : www.kinozal.tv

Видео
Идентификатор : 0
Формат : MPEG-4 Visual
Профиль формата : Advanced [email protected]
Параметр BVOP формата : 2
Параметр QPel формата : Нет
Параметр GMC формата : Без точки перехода
Параметр матрицы формата : Default (MPEG)
Идентификатор кодека : XVID
Идентификатор кодека/Подсказка : XviD
Продолжительность : 3 м. 1 с.
Битрейт : 1703 Кбит/сек
Ширина : 704 пикселя
Высота : 288 пикселей
Соотношение сторон : 2,40:1
Частота кадров : 25,000 кадров/сек
Цветовое пространство : YUV
Субдискретизация насыщенности : 4:2:0
Битовая глубина : 8 бит
Тип развёртки : Прогрессивная
Метод сжатия : С потерями
Бит/(Пиксели*Кадры) : 0.336
Размер потока : 36,8 Мбайт (89%)
Библиотека кодирования : XviD 64

Аудио
Идентификатор : 1
Формат : AC-3
Формат/Информация : Audio Coding 3
Расширение режима : CM (complete main)
Параметр Endianness формата : Big
Идентификатор кодека : 2000
Продолжительность : 3 м. 1 с.
Вид битрейта : Постоянный
Битрейт : 192 Кбит/сек
Каналы : 2 канала
Расположение каналов : Front: L R
Частота : 48,0 КГц
Битовая глубина : 16 бит
Метод сжатия : С потерями
Размер потока : 4,15 Мбайт (10%)
Выравнивание : Разделение по промежуткам
Продолжительность промежутка : 40 мс. (1,00 видеокадр)
Время предзагрузки промежутка : 500 мс.

Общее
Полное имя : D:\Установочники игр\Mozart.l.opera.rock.(2.chasti.iz.2.plus.bonus).2010.DVDRip\Mozart.l.opera.rock.(Clip-Tatoue-moi).2010.DVDRip.avi
Формат : AVI
Формат/Информация : Audio Video Interleave
Размер файла : 45,4 Мбайт
Продолжительность : 3 м. 19 с.
Общий поток : 1905 Кбит/сек
Название фильма : Mozart, l'opera rock. Single - Tatoue-moi
Режиссёр : Rip by MC
Жанр : Musical
Программа кодирования : VirtualDubMod 1.5.10.3 | www.virtualdub-fr.org || (build 2550/release)
Формат оригинала/Имя : Music Video
Примечание : www.kinozal.tv

Видео
Идентификатор : 0
Формат : MPEG-4 Visual
Профиль формата : Advanced [email protected]
Параметр BVOP формата : 2
Параметр QPel формата : Нет
Параметр GMC формата : Без точки перехода
Параметр матрицы формата : Default (MPEG)
Идентификатор кодека : XVID
Идентификатор кодека/Подсказка : XviD
Продолжительность : 3 м. 19 с.
Битрейт : 1703 Кбит/сек
Ширина : 704 пикселя
Высота : 400 пикселей
Соотношение сторон : 16:9
Частота кадров : 25,000 кадров/сек
Цветовое пространство : YUV
Субдискретизация насыщенности : 4:2:0
Битовая глубина : 8 бит
Тип развёртки : Прогрессивная
Метод сжатия : С потерями
Бит/(Пиксели*Кадры) : 0.242
Размер потока : 40,5 Мбайт (89%)
Библиотека кодирования : XviD 64

Аудио
Идентификатор : 1
Формат : AC-3
Формат/Информация : Audio Coding 3
Расширение режима : CM (complete main)
Параметр Endianness формата : Big
Идентификатор кодека : 2000
Продолжительность : 3 м. 19 с.
Вид битрейта : Постоянный
Битрейт : 192 Кбит/сек
Каналы : 2 канала
Расположение каналов : Front: L R
Частота : 48,0 КГц
Битовая глубина : 16 бит
Метод сжатия : С потерями
Размер потока : 4,57 Мбайт (10%)
Выравнивание : Разделение по промежуткам
Продолжительность промежутка : 40 мс. (1,00 видеокадр)
Время предзагрузки промежутка : 500 мс.

Общее
Полное имя : D:\Установочники игр\Mozart.l.opera.rock.(2.chasti.iz.2.plus.bonus).2010.DVDRip\Mozart.l.opera.rock.(Clip-Vivre.a.en.Crever).2010.DVDRip.avi
Формат : AVI
Формат/Информация : Audio Video Interleave
Размер файла : 56,1 Мбайт
Продолжительность : 3 м. 56 с.
Общий поток : 1992 Кбит/сек
Название фильма : Mozart, l'opera rock. Single - Vivre a en Crever
Режиссёр : Rip by MC
Жанр : Musical
Программа кодирования : VirtualDubMod 1.5.10.3 | www.virtualdub-fr.org || (build 2550/release)
Формат оригинала/Имя : Music Video
Примечание : www.kinozal.tv

Видео
Идентификатор : 0
Формат : MPEG-4 Visual
Профиль формата : Advanced [email protected]
Параметр BVOP формата : 2
Параметр QPel формата : Нет
Параметр GMC формата : Без точки перехода
Параметр матрицы формата : Default (MPEG)
Идентификатор кодека : XVID
Идентификатор кодека/Подсказка : XviD
Продолжительность : 3 м. 56 с.
Битрейт : 1790 Кбит/сек
Ширина : 704 пикселя
Высота : 304 пикселя
Соотношение сторон : 2,35:1
Частота кадров : 25,000 кадров/сек
Цветовое пространство : YUV
Субдискретизация насыщенности : 4:2:0
Битовая глубина : 8 бит
Тип развёртки : Прогрессивная
Метод сжатия : С потерями
Бит/(Пиксели*Кадры) : 0.335
Размер потока : 50,4 Мбайт (90%)
Библиотека кодирования : XviD 64

Аудио
Идентификатор : 1
Формат : AC-3
Формат/Информация : Audio Coding 3
Расширение режима : CM (complete main)
Параметр Endianness формата : Big
Идентификатор кодека : 2000
Продолжительность : 3 м. 56 с.
Вид битрейта : Постоянный
Битрейт : 192 Кбит/сек
Каналы : 2 канала
Расположение каналов : Front: L R
Частота : 48,0 КГц
Битовая глубина : 16 бит
Метод сжатия : С потерями
Размер потока : 5,41 Мбайт (10%)
Выравнивание : Разделение по промежуткам
Продолжительность промежутка : 40 мс. (1,00 видеокадр)
Время предзагрузки промежутка : 500 мс.

Общее
Полное имя : D:\Установочники игр\Mozart.l.opera.rock.(2.chasti.iz.2.plus.bonus).2010.DVDRip\Mozart.l.opera.rock.(Karaoke-J.accuse.mon.Pere).2010.DVDRip.avi
Формат : AVI
Формат/Информация : Audio Video Interleave
Размер файла : 37,3 Мбайт
Продолжительность : 2 м. 44 с.
Общий поток : 1897 Кбит/сек
Название фильма : Mozart, l'opera rock. Karaoke - J'accuse mon Pere
Режиссёр : Rip by MC
Жанр : Musical
Программа кодирования : VirtualDubMod 1.5.10.3 | www.virtualdub-fr.org || (build 2550/release)
Формат оригинала/Имя : Music Video
Примечание : www.kinozal.tv

Видео
Идентификатор : 0
Формат : MPEG-4 Visual
Профиль формата : Advanced [email protected]
Параметр BVOP формата : 2
Параметр QPel формата : Нет
Параметр GMC формата : Без точки перехода
Параметр матрицы формата : Default (MPEG)
Идентификатор кодека : XVID
Идентификатор кодека/Подсказка : XviD
Продолжительность : 2 м. 44 с.
Битрейт : 1695 Кбит/сек
Ширина : 704 пикселя
Высота : 400 пикселей
Соотношение сторон : 16:9
Частота кадров : 25,000 кадров/сек
Цветовое пространство : YUV
Субдискретизация насыщенности : 4:2:0
Битовая глубина : 8 бит
Тип развёртки : Прогрессивная
Метод сжатия : С потерями
Бит/(Пиксели*Кадры) : 0.241
Размер потока : 33,3 Мбайт (89%)
Библиотека кодирования : XviD 64

Аудио
Идентификатор : 1
Формат : AC-3
Формат/Информация : Audio Coding 3
Расширение режима : CM (complete main)
Параметр Endianness формата : Big
Идентификатор кодека : 2000
Продолжительность : 2 м. 44 с.
Вид битрейта : Постоянный
Битрейт : 192 Кбит/сек
Каналы : 2 канала
Расположение каналов : Front: L R
Частота : 48,0 КГц
Битовая глубина : 16 бит
Метод сжатия : С потерями
Размер потока : 3,77 Мбайт (10%)
Выравнивание : Разделение по промежуткам
Продолжительность промежутка : 40 мс. (1,00 видеокадр)
Время предзагрузки промежутка : 500 мс.

Общее
Полное имя : D:\Установочники игр\Mozart.l.opera.rock.(2.chasti.iz.2.plus.bonus).2010.DVDRip\Mozart.l.opera.rock.(Karaoke-L.Assasymphonie).2010.DVDRip.avi
Формат : AVI
Формат/Информация : Audio Video Interleave
Размер файла : 52,9 Мбайт
Продолжительность : 3 м. 53 с.
Общий поток : 1897 Кбит/сек
Название фильма : Mozart, l'opera rock. Karaoke - L'Assasymphonie
Режиссёр : Rip by MC
Жанр : Musical
Программа кодирования : VirtualDubMod 1.5.10.3 | www.virtualdub-fr.org || (build 2550/release)
Формат оригинала/Имя : Music Video
Примечание : www.kinozal.tv

Видео
Идентификатор : 0
Формат : MPEG-4 Visual
Профиль формата : Advanced [email protected]
Параметр BVOP формата : 2
Параметр QPel формата : Нет
Параметр GMC формата : Без точки перехода
Параметр матрицы формата : Default (MPEG)
Идентификатор кодека : XVID
Идентификатор кодека/Подсказка : XviD
Продолжительность : 3 м. 53 с.
Битрейт : 1695 Кбит/сек
Ширина : 704 пикселя
Высота : 400 пикселей
Соотношение сторон : 16:9
Частота кадров : 25,000 кадров/сек
Цветовое пространство : YUV
Субдискретизация насыщенности : 4:2:0
Битовая глубина : 8 бит
Тип развёртки : Прогрессивная
Метод сжатия : С потерями
Бит/(Пиксели*Кадры) : 0.241
Размер потока : 47,2 Мбайт (89%)
Библиотека кодирования : XviD 64

Аудио
Идентификатор : 1
Формат : AC-3
Формат/Информация : Audio Coding 3
Расширение режима : CM (complete main)
Параметр Endianness формата : Big
Идентификатор кодека : 2000
Продолжительность : 3 м. 53 с.
Вид битрейта : Постоянный
Битрейт : 192 Кбит/сек
Каналы : 2 канала
Расположение каналов : Front: L R
Частота : 48,0 КГц
Битовая глубина : 16 бит
Метод сжатия : С потерями
Размер потока : 5,35 Мбайт (10%)
Выравнивание : Разделение по промежуткам
Продолжительность промежутка : 40 мс. (1,00 видеокадр)
Время предзагрузки промежутка : 500 мс.

Общее
Полное имя : D:\Установочники игр\Mozart.l.opera.rock.(2.chasti.iz.2.plus.bonus).2010.DVDRip\Mozart.l.opera.rock.(Karaoke-Le.Bien.qui.fait.Mal).2010.DVDRip.avi
Формат : AVI
Формат/Информация : Audio Video Interleave
Размер файла : 38,1 Мбайт
Продолжительность : 2 м. 48 с.
Общий поток : 1898 Кбит/сек
Название фильма : Mozart, l'opera rock. Karaoke - Le Bien qui fait Mal
Режиссёр : Rip by MC
Жанр : Musical
Программа кодирования : VirtualDubMod 1.5.10.3 | www.virtualdub-fr.org || (build 2550/release)
Формат оригинала/Имя : Music Video
Примечание : www.kinozal.tv

Видео
Идентификатор : 0
Формат : MPEG-4 Visual
Профиль формата : Advanced [email protected]
Параметр BVOP формата : 2
Параметр QPel формата : Нет
Параметр GMC формата : Без точки перехода
Параметр матрицы формата : Default (MPEG)
Идентификатор кодека : XVID
Идентификатор кодека/Подсказка : XviD
Продолжительность : 2 м. 48 с.
Битрейт : 1695 Кбит/сек
Ширина : 704 пикселя
Высота : 400 пикселей
Соотношение сторон : 16:9
Частота кадров : 25,000 кадров/сек
Цветовое пространство : YUV
Субдискретизация насыщенности : 4:2:0
Битовая глубина : 8 бит
Тип развёртки : Прогрессивная
Метод сжатия : С потерями
Бит/(Пиксели*Кадры) : 0.241
Размер потока : 34,1 Мбайт (89%)
Библиотека кодирования : XviD 64

Аудио
Идентификатор : 1
Формат : AC-3
Формат/Информация : Audio Coding 3
Расширение режима : CM (complete main)
Параметр Endianness формата : Big
Идентификатор кодека : 2000
Продолжительность : 2 м. 48 с.
Вид битрейта : Постоянный
Битрейт : 192 Кбит/сек
Каналы : 2 канала
Расположение каналов : Front: L R
Частота : 48,0 КГц
Битовая глубина : 16 бит
Метод сжатия : С потерями
Размер потока : 3,86 Мбайт (10%)
Выравнивание : Разделение по промежуткам
Продолжительность промежутка : 40 мс. (1,00 видеокадр)
Время предзагрузки промежутка : 500 мс.

Общее
Полное имя : D:\Установочники игр\Mozart.l.opera.rock.(2.chasti.iz.2.plus.bonus).2010.DVDRip\Mozart.l.opera.rock.(Karaoke-Tatoue-moi).2010.DVDRip.avi
Формат : AVI
Формат/Информация : Audio Video Interleave
Размер файла : 45,1 Мбайт
Продолжительность : 3 м. 19 с.
Общий поток : 1897 Кбит/сек
Название фильма : Mozart, l'opera rock. Karaoke - Tatoue-moi
Режиссёр : Rip by MC
Жанр : Musical
Программа кодирования : VirtualDubMod 1.5.10.3 | www.virtualdub-fr.org || (build 2550/release)
Формат оригинала/Имя : Music Video
Примечание : www.kinozal.tv

Видео
Идентификатор : 0
Формат : MPEG-4 Visual
Профиль формата : Advanced [email protected]
Параметр BVOP формата : 2
Параметр QPel формата : Нет
Параметр GMC формата : Без точки перехода
Параметр матрицы формата : Default (MPEG)
Идентификатор кодека : XVID
Идентификатор кодека/Подсказка : XviD
Продолжительность : 3 м. 19 с.
Битрейт : 1695 Кбит/сек
Ширина : 704 пикселя
Высота : 400 пикселей
Соотношение сторон : 16:9
Частота кадров : 25,000 кадров/сек
Цветовое пространство : YUV
Субдискретизация насыщенности : 4:2:0
Битовая глубина : 8 бит
Тип развёртки : Прогрессивная
Метод сжатия : С потерями
Бит/(Пиксели*Кадры) : 0.241
Размер потока : 40,3 Мбайт (89%)
Библиотека кодирования : XviD 64

Аудио
Идентификатор : 1
Формат : AC-3
Формат/Информация : Audio Coding 3
Расширение режима : CM (complete main)
Параметр Endianness формата : Big
Идентификатор кодека : 2000
Продолжительность : 3 м. 19 с.
Вид битрейта : Постоянный
Битрейт : 192 Кбит/сек
Каналы : 2 канала
Расположение каналов : Front: L R
Частота : 48,0 КГц
Битовая глубина : 16 бит
Метод сжатия : С потерями
Размер потока : 4,56 Мбайт (10%)
Выравнивание : Разделение по промежуткам
Продолжительность промежутка : 40 мс. (1,00 видеокадр)
Время предзагрузки промежутка : 500 мс.

Общее
Полное имя : D:\Установочники игр\Mozart.l.opera.rock.(2.chasti.iz.2.plus.bonus).2010.DVDRip\Mozart.l.opera.rock.(Karaoke-Vivre.a.en.Crever).2010.DVDRip.avi
Формат : AVI
Формат/Информация : Audio Video Interleave
Размер файла : 49,1 Мбайт
Продолжительность : 3 м. 30 с.
Общий поток : 1959 Кбит/сек
Название фильма : Mozart, l'opera rock. Karaoke - Vivre a en Crever
Режиссёр : Rip by MC
Жанр : Musical
Программа кодирования : VirtualDubMod 1.5.10.3 | www.virtualdub-fr.org || (build 2550/release)
Формат оригинала/Имя : Music Video
Примечание : www.kinozal.tv

Видео
Идентификатор : 0
Формат : MPEG-4 Visual
Профиль формата : Advanced [email protected]
Параметр BVOP формата : 2
Параметр QPel формата : Нет
Параметр GMC формата : Без точки перехода
Параметр матрицы формата : Default (MPEG)
Идентификатор кодека : XVID
Идентификатор кодека/Подсказка : XviD
Продолжительность : 3 м. 30 с.
Битрейт : 1757 Кбит/сек
Ширина : 704 пикселя
Высота : 400 пикселей
Соотношение сторон : 16:9
Частота кадров : 25,000 кадров/сек
Цветовое пространство : YUV
Субдискретизация насыщенности : 4:2:0
Битовая глубина : 8 бит
Тип развёртки : Прогрессивная
Метод сжатия : С потерями
Бит/(Пиксели*Кадры) : 0.250
Размер потока : 44,0 Мбайт (90%)
Библиотека кодирования : XviD 64

Аудио
Идентификатор : 1
Формат : AC-3
Формат/Информация : Audio Coding 3
Расширение режима : CM (complete main)
Параметр Endianness формата : Big
Идентификатор кодека : 2000
Продолжительность : 3 м. 30 с.
Вид битрейта : Постоянный
Битрейт : 192 Кбит/сек
Каналы : 2 канала
Расположение каналов : Front: L R
Частота : 48,0 КГц
Битовая глубина : 16 бит
Метод сжатия : С потерями
Размер потока : 4,81 Мбайт (10%)
Выравнивание : Разделение по промежуткам
Продолжительность промежутка : 40 мс. (1,00 видеокадр)
Время предзагрузки промежутка : 500 мс.




Скачать Мозарт Рок Опера через торрент http://i32.fastpic.ru/big/2012/0122/ce/c86ec630d4f7047305b80bea366246ce.jpg Скачать, смотреть онлайн Мозарт Рок Опера бесплантно в хорошем качестве Описание: Французский мюзикл Дова Аттья и Альбера Коэна, посвященный истории жизни Вольфганга Амадея Моцарта. Этот мюзикл считается одним ... 10 10 6
× Info от релизера! обвонвленный
Info! Золотая раздача, скачанное не засчитывается.
Торрент: Зарегистрирован [2014-04-26 14:52] · скачан: 98 раз
Статус: √ проверено
Размер: 2.18 GB
Как cкачать? Как скачать Мозарт Рок Опера через торрент | UTorrent

28-11-2019 20:33  


Отключить вcю реклaмy на сайте, в т.ч. и в плеере онлайн просмотра!

26-04-2014 17:04 Мозарт Рок Опера Скачать торрент  

ОТ ДУШИ!!!



    Дорогой пользователь! Огромная просьба, поблагодарите релизера, оцените раздачу и оставьте свои комментарий, если Вы скачали Мозарт Рок Опера через торрент бесплатно!!
    Комментировать посты могут только пользователи прошедшие не сложную регистрацию
    Показать сообщения:    


    Мозарт Рок Опера через торрент
    Скачать бесплатно Мозарт Рок Опера
    Мозарт Рок Опера скачать торрент
    Мозарт Рок Опера смотреть онлайн
    Cкачать фильм Мозарт Рок Опера бесплатно
    Мозарт Рок Опера скачать торрент в хорошем качестве
    Мозарт Рок Опера смотреть онлайн бесплатно в хорошем качестве
    Вы не можете начинать темы
    Вы не можете отвечать на сообщения
    Вы не можете редактировать свои сообщения
    Вы не можете удалять свои сообщения
    Вы не можете голосовать в опросах
    Вы не можете прикреплять файлы к сообщениям
    Вы можете скачивать файлы
    Мозарт Рок Опера / Mozart, l'opera rock ) [2010 г., мюзикл, рок-опера, DVDRip, Субтитры] смотреть онлайн, скачать торрент picoco.icu