Всегда рабочее зеркало без VPN и Proxy просто перед .vidak.icu напиши любое слово или цифру, Пример http://5gv5.vidak.icu

MVO

Лицензия

1 сезон

1

1 сезон

iTunes

1 сезон

13

1 сезон

Deluxe

pack

Рекомендуем

Repack

30

ВАЖНО

RePack

MK11

RePack

jed

RePack

fifa19

RePack

RDR2

RePack

NEED FOR SPEED™ PAYBACK

Кинопоиск HD

6 сезон

 Острые козырьки 6 сезон

Все сериалы

все сериалы на PB.wtf

RePack

FAR CRY 5
  
Magnet ссылка

Марафон (Карен Оганесян) [2013 г., комедия, мелодрама, семейный, WEB-DLRip, Лицензия] pb.wtf

Марафон через торрент pb.wtf

Размер: 749 MB | Добавлен: 8 лет 2 мес. назад | Торрент скачан:357 раз
Смотреть онлайн Марафон | Скачать    Ребята, помогите собрать деньги на оплату серверов!!!

28-04-2014 10:21 Марафон Скачать торрент  

Марафон
Год выпуска: 2013
Страна: Россия
Жанр: комедия, мелодрама, семейный
Продолжительность: 01:41:00
Тип релиза: Лицензия
Субтитры: Нет

Режиссер: Карен Оганесян

Бюджет: 71 500 000 руб.
Премьера в мире: 4 июля 2013



В ролях: Михаил Пореченков, Екатерина Васильева, Юлия Пересильд, Анатолий Белый, Игорь Савочкин, Ольга Волкова, Сергей Газаров, Анна Михалкова, Мария Аронова, Ирина Пивоварова

Описание: Жизнь Толика не удалась, спортивная карьера не состоялась, жена ушла к другому. Неуспешный, нелюбимый, безнадежный он потерял веру в себя. Все меняет случайная встреча со странной незнакомкой Анной Ильиничной, которая предлагает ему принять участие в необычном марафоне в далекой Америке…

Доп. информация:
Марафон (2013) DVDRip
1) Весомый аргумент это отличие в продолжительности конкурент 01:35:21 мой релиз 01:41:00
2) Качество видео а) DVD и WEB-DLRip б) у конкурента мутное качество откровенно говоря фейк..... (У DVD-шки длительность 01:40:58) вообшем понятно все :gi:
3) Возвращаясь к п.1 (У него нету начальной заставки и титров) сравнивать дальше нету смысла т.к я все доказал ..... =) : ..........
Качество: WEB-DLRip
Формат: AVI
Видео кодек: XviD
Аудио кодек: MP3
Видео: 624x336 (1.86:1), 25 fps, XviD build 73 ~898 kbps avg, 0.17 bit/pixel
Аудио#1: 48 kHz, MPEG Layer 3, 2 ch, ~128.00 kbps avg
Релиз от: Deadmauvlad
скриншот   скриншот   скриншот   скриншот   скриншот   скриншот   скриншот   скриншот  

Общее
Полное имя : D:\Рипы выкладка [Deadmauvlad]\Рипы готовые\Marafon.2013.WEB-DLRip.Rus.Deadmauvlad.avi
Формат : AVI
Формат/Информация : Audio Video Interleave
Размер файла : 749 Мбайт
Продолжительность : 1 ч. 41 м.
Общий поток : 1037 Кбит/сек
Название фильма : Marafon.2013.WEB-DLRip.Rus.Deadmauvlad
Режиссёр : Deadmauvlad
Жанр : комедия
Программа кодирования : VirtualDubMod 1.5.10.3 | www.virtualdub-fr.org || (build 2550/release)
Формат оригинала/Имя : Фильм
Правообладатель : Goldenshara

Видео
Идентификатор : 0
Формат : MPEG-4 Visual
Профиль формата : Advanced [email protected]
Параметр BVOP формата : 1
Параметр QPel формата : Нет
Параметр GMC формата : Без точки перехода
Параметр матрицы формата : Выборочная
Идентификатор кодека : XVID
Идентификатор кодека/Подсказка : XviD
Продолжительность : 1 ч. 41 м.
Битрейт : 899 Кбит/сек
Ширина : 624 пикселя
Высота : 336 пикселей
Соотношение сторон : 1,85:1
Частота кадров : 25,000 кадров/сек
Цветовое пространство : YUV
Субдискретизация насыщенности : 4:2:0
Битовая глубина : 8 бит
Тип развёртки : Прогрессивная
Метод сжатия : С потерями
Бит/(Пиксели*Кадры) : 0.171
Размер потока : 649 Мбайт (87%)
Библиотека кодирования : XviD 73

Аудио
Идентификатор : 1
Формат : MPEG Audio
Версия формата : Version 1
Профиль формата : Layer 3
Идентификатор кодека : 55
Идентификатор кодека/Подсказка : MP3
Продолжительность : 1 ч. 41 м.
Вид битрейта : Постоянный
Битрейт : 128 Кбит/сек
Каналы : 2 канала
Частота : 48,0 КГц
Метод сжатия : С потерями
Размер потока : 92,5 Мбайт (12%)
Выравнивание : Соединение по промежуткам
Продолжительность промежутка : 40 мс. (1,00 видеокадр)
Время предзагрузки промежутка : 504 мс.
Библиотека кодирования : LAME3.99r
Настройки программы : -m s -V 4 -q 2 -lowpass 17 -b 128

pb.wtf



Скачать Марафон через торрент https://pic1.kartinco.top/images/61/3nt68.jpg Скачать, смотреть онлайн Марафон бесплантно в хорошем качестве Описание: Жизнь Толика не удалась, спортивная карьера не состоялась, жена ушла к другому. Неуспешный, нелюбимый, безнадежный он потерял ... 10 10 9
Торрент: Зарегистрирован [2014-04-28 10:21] · скачан: 357 раз
Статус: √ проверено
Размер: 749 MB
Как cкачать? Как скачать Марафон через торрент | UTorrent

% Раздел Тема Автор DL S | L
Фильмы [HD 720p, 1080p] (Хороший звук DUB, MVO) [ 4.53 GB ] Проклятие монахинь / Agnes [2021 BDRip 720p] DUB [Марафон] bober100 Скачать
1 | 0
Фильмы [HD 720p, 1080p] (Хороший звук DUB, MVO) [ 7.94 GB ] Проклятие монахинь / Agnes [2021 BDRip 1080p] DUB [Марафон] bober100 Скачать
1 | 0
Фильмы 2021 [DVDrip, WEB-DLRip, HDrip] (DUB, MVO) [ 745 MB ] Проклятие монахинь / Agnes [2021 HDRip] DUB [Марафон] bober100 Скачать
1 | 0
Фильмы 2021 [DVDrip, WEB-DLRip, HDrip] (DUB, MVO) [ 1.82 GB ] Проклятие монахинь [2021 HDRip-AVC] DUB [Марафон] от ExKinoRay Lithuania Скачать
1 | 0
Фильмы [HD 720p, 1080p] (Хороший звук DUB, MVO) [ 8.16 GB ] Жажда золота / Gold [2022 BDRip 1080p] DUB [Марафон / Кинопоиск HD] bober100 Скачать
1 | 0
Фильмы 2021 [DVDrip, WEB-DLRip, HDrip] (DUB, MVO) [ 747 MB ] Жажда золота / Gold [2022 HDRip] DUB [Марафон / Кинопоиск HD] bober100 Скачать
1 | 0
Фильмы (Blu-ray, BD-Remux, HDDVD) [ 25.07 GB ] Жажда золота / Gold [2022 BD Remux 1080p] DUB [Марафон / Кинопоиск HD] bober100 Скачать
1 | 0

28-11-2019 20:33  

Отключить всю рекламу на сайте

    Дорогой пользователь! Огромная просьба, поблагодарите релизера, оцените раздачу и оставьте свои комментарий, если Вы скачали Марафон через торрент бесплатно!
    Комментировать посты могут только пользователи прошедшие не сложную регистрацию
    Показать сообщения:    

    Марафон через торрент
    Скачать бесплатно Марафон
    Марафон скачать торрент
    Марафон смотреть онлайн
    Cкачать фильм Марафон бесплатно
    Марафон скачать торрент в хорошем качестве
    Марафон смотреть онлайн бесплатно в хорошем качестве


    Вы не можете начинать темы
    Вы не можете отвечать на сообщения
    Вы не можете редактировать свои сообщения
    Вы не можете удалять свои сообщения
    Вы не можете голосовать в опросах
    Вы не можете прикреплять файлы к сообщениям
    Вы можете скачивать файлы