Ссылка на приватное зеркало нашего сайта всего за 1$. Внимание количество ограничено!!!

2 сезон

iTunes

1 сезон

1

2 сезон

2 сезон

iTunes

1 сезон

RePack

30

Ultimate

ВАЖНО

ИГРА 18+

pack

RePack

MK11
pack

Забери бонус

RePack

jed

!!Акция!!

Alien_Rage

RePack

fifa19

RePack

Assassins Creed: Odyssey

RePack

NEED FOR SPEED™ PAYBACK

4 сезон

9 сезон

Бесстыжие 9 сезон

Все сериалы

все сериалы на PB.wtf

RePack

FAR CRY 5
  

Интервью с вампиром / Interview with the Vampire: The Vampire Chronicles (Нил Джордан) [1994 г., Ужасы, фэнтези, драма, BDRip 1080p, Дубляж] pb.wtf

Интервью с вампиром через торрент pb.wtf

Размер: 12.02 GB | Добавлен: 6 лет 6 мес. назад | Торрент скачан:58 раз
Скачать  

28-04-2014 13:47 Интервью с вампиром Скачать торрент  

Интервью с вампиром / Interview with the Vampire: The Vampire Chronicles
Год выпуска: 1994
Страна: США
Жанр: Ужасы, фэнтези, драма
Продолжительность: 02:02:33
Перевод: Дубляж
Субтитры: Датские, английские

Режиссер: Нил Джордан
Продюссер: Дэвид Геффен, Стивен Вулли, Редмонд Моррис
Сценарий: Энн Райс

Бюджет: $60 000 000
Премьера в мире: 11 ноября 1994



В ролях: Том Круз, Брэд Питт, Антонио Бандерас, Стивен Ри, Кристиан Слэйтер, Керстен Данст

Описание: Нежить – среди нас, она – живее всех живых. Лест, стильный и в высшей степени опасный и обаятельный вампир, соблазянет Луи бессмертием прoклятых в момент глубочайшего горя - у него умерла жена и ему это показалось выходом. Новообращенный мучается непереносимой необходимостью вампирской жизни: убивать, чтобы выжить, поскольку ему не удалось стать вампиром до конца, в нем остались и человеческая душа, и способность плакать и любить. Дрожь, шок и дьявольское наслаждения до конца жизни… и за ее пределами!

Качество: BDRip 1080p
Формат: MKV
Видео кодек: H.264
Аудио кодек: AC3, DTS
Видео: 1920x1080p, 23.976 fps, 10.8 mbps
Аудио#1: Русский AC3 5.1, 48 kHz 448 kbps (дубляж)
Аудио#2: Русский DTS 5.1, 48 kHz 768 Kbps (Петр Гланц и Инна Королева)
Аудио#3: Русский DTS 5.1, 48 kHz 768 Kbps (Горчаков)
Аудио#4: Английский AC3 5.1, 48 kHz 640 kbps



Общее
Уникальный идентификатор : 254769369445691313296605791285024264374 (0xBFAACBB674CB8DA5A4D83376A82610B6)
Полное имя : D:\Интервью с вампиром (1994) BDRip-1080p.mkv
Формат : Matroska
Версия формата : Version 1
Размер файла : 12,0 Гбайт
Продолжительность : 2 ч. 2 м.
Общий поток : 14,0 Мбит/сек
Дата кодирования : UTC 2008-09-29 20:28:01
Программа кодирования : mkvmerge v2.2.0 ('Turn It On Again') built on Mar 4 2008 12:58:26
Библиотека кодирования : libebml v0.7.7 + libmatroska v0.8.1

Видео
Идентификатор : 1
Формат : AVC
Формат/Информация : Advanced Video Codec
Профиль формата : High@L4.1
Параметр CABAC формата : Да
Параметр ReFrames формата : 4 кадра
Идентификатор кодека : V_MPEG4/ISO/AVC
Продолжительность : 2 ч. 2 м.
Битрейт : 11,2 Мбит/сек
Ширина : 1920 пикселей
Высота : 1080 пикселей
Соотношение сторон : 16:9
Режим частоты кадров : Постоянный
Частота кадров : 23,976 кадра/сек
Цветовое пространство : YUV
Субдискретизация насыщенности : 4:2:0
Битовая глубина : 8 бит
Тип развёртки : Прогрессивная
Бит/(Пиксели*Кадры) : 0.225
Размер потока : 9,56 Гбайт (80%)
Заголовок : x264 - crf encode
Библиотека кодирования : x264 core 64 r985M e256ea1
Настройки программы : cabac=1 / ref=4 / deblock=1:-2:-2 / analyse=0x3:0x113 / me=umh / subme=7 / psy_rd=1.0:0.0 / brdo=1 / mixed_ref=1 / me_range=16 / chroma_me=1 / trellis=2 / 8x8dct=1 / cqm=0 / deadzone=21,11 / chroma_qp_offset=-2 / threads=6 / nr=0 / decimate=0 / mbaff=0 / bframes=3 / b_pyramid=1 / b_adapt=1 / b_bias=0 / direct=3 / wpredb=1 / bime=1 / keyint=250 / keyint_min=25 / scenecut=40(pre) / rc=crf / crf=22.0 / qcomp=0.60 / qpmin=10 / qpmax=51 / qpstep=4 / vbv_maxrate=38000 / vbv_bufsize=30000 / ip_ratio=1.40 / pb_ratio=1.30 / aq=1:1.00
Язык : English
Default : Да
Forced : Нет

Аудио #1
Идентификатор : 2
Формат : AC-3
Формат/Информация : Audio Coding 3
Расширение режима : CM (complete main)
Параметр Endianness формата : Big
Идентификатор кодека : A_AC3
Продолжительность : 2 ч. 2 м.
Вид битрейта : Постоянный
Битрейт : 448 Кбит/сек
Каналы : 6 каналов
Расположение каналов : Front: L C R, Side: L R, LFE
Частота : 48,0 КГц
Битовая глубина : 16 бит
Метод сжатия : С потерями
Размер потока : 393 Мбайт (3%)
Заголовок : AC3 448 kbps Dub
Язык : Russian
Default : Да
Forced : Нет

Аудио #2
Идентификатор : 3
Формат : DTS
Формат/Информация : Digital Theater Systems
Режим : 16
Параметр Endianness формата : Big
Идентификатор кодека : A_DTS
Продолжительность : 2 ч. 2 м.
Вид битрейта : Постоянный
Битрейт : 755 Кбит/сек
Каналы : 6 каналов
Расположение каналов : Front: L C R, Side: L R, LFE
Частота : 48,0 КГц
Битовая глубина : 24 бит
Метод сжатия : С потерями
Размер потока : 661 Мбайт (5%)
Заголовок : DTS 768 kbps Glanc
Язык : Russian
Default : Нет
Forced : Нет

Аудио #3
Идентификатор : 4
Формат : DTS
Формат/Информация : Digital Theater Systems
Режим : 16
Параметр Endianness формата : Big
Идентификатор кодека : A_DTS
Продолжительность : 2 ч. 2 м.
Вид битрейта : Постоянный
Битрейт : 755 Кбит/сек
Каналы : 6 каналов
Расположение каналов : Front: L C R, Side: L R, LFE
Частота : 48,0 КГц
Битовая глубина : 24 бит
Метод сжатия : С потерями
Размер потока : 661 Мбайт (5%)
Заголовок : DTS 768 kbps Gorch
Язык : Russian
Default : Нет
Forced : Нет

Аудио #4
Идентификатор : 5
Формат : AC-3
Формат/Информация : Audio Coding 3
Расширение режима : CM (complete main)
Параметр Endianness формата : Big
Идентификатор кодека : A_AC3
Продолжительность : 2 ч. 2 м.
Вид битрейта : Постоянный
Битрейт : 640 Кбит/сек
Каналы : 6 каналов
Расположение каналов : Front: L C R, Side: L R, LFE
Частота : 48,0 КГц
Битовая глубина : 16 бит
Метод сжатия : С потерями
Задержка видео : 100 мс.
Размер потока : 561 Мбайт (5%)
Заголовок : AC3 - 640 kbit/sec
Язык : English
Default : Нет
Forced : Нет

Текст #1
Идентификатор : 6
Формат : UTF-8
Идентификатор кодека : S_TEXT/UTF8
Идентификатор кодека/Информация : UTF-8 Plain Text
Язык : English
Default : Да
Forced : Нет

Текст #2
Идентификатор : 7
Формат : UTF-8
Идентификатор кодека : S_TEXT/UTF8
Идентификатор кодека/Информация : UTF-8 Plain Text
Язык : Dutch
Default : Нет
Forced : Нет
pb.wtf



Скачать Интервью с вампиром через торрент http://6.firepic.org/6/images/2014-04/28/zdfnrzfe8lxd.jpg Скачать фильм Интервью с вампиром через торрент бесплантно в хорошем качестве Описание: Нежить – среди нас, она – живее всех живых. Лест, стильный и в высшей степени опасный и обаятельный вампир, соблазянет Луи ... 9.9 10 10
Info! Золотая раздача, скачанное не засчитывается.
Торрент: Зарегистрирован [2014-04-28 13:47] · скачан: 58 раз
Статус: √ проверено
Размер: 12.02 GB
Как cкачать? Как скачать Интервью с вампиром через торрент | qTorrent

% Раздел Тема Автор DL S | L
? Оформление раздач (Кино, Видео и ТВ) [ 3.49 GB ] Интервью с вампиром / Interview with the Vampire: The Vampire Chronicles [1994 BDRip 720p / 60 FPS ] alien2015 Скачать
1 | 0
Фильмы [HD 720p, 1080p] (Хороший звук DUB, MVO) [ 18.65 GB ] Интервью с вампиром / Interview with the Vampire: The Vampire Chronicles [1994 BDRip 1080p by msltel] 2хDUB 2хDVO 4хAVO msltel Скачать
1 | 0
Фильмы [HD 720p, 1080p] (Хороший звук DUB, MVO) [ 8.4 GB ] Интервью с вампиром / Interview with the Vampire: The Vampire Chronicles [1994 BDRip 720p by msltel] 2хDUB 2хDVO 4хAVO msltel Скачать
1 | 0
R.G. Resident & PiratVoice - Фильмы, Видео [ 2.17 GB ] Интервью с вампиром / Interview with the Vampire: The Vampire Chronicles [1994 BDRip-AVC ] от R.G. Resident Ворон Скачать
3 | 0
Фильмы (Blu-ray, BD-Remux, HDDVD) [ 19.94 GB ] Интервью с вампиром / Interview with the Vampire: The Vampire Chronicles [1994 BD Remux +DVO+AVO] Ворон Скачать
1 | 0
Фильмы (Blu-ray, BD-Remux, HDDVD) [ 33.58 GB ] Интервью с вампиром / Interview with the Vampire: The Vampire Chronicles [1994 Blu-ray CEE 1080p] Russian Mafia Скачать
1 | 0
Фильмы до 2000 г. [ 2.57 GB ] Интервью с вампиром / Interview with the Vampire: The Vampire Chronicles [1994 BDRip] Ворон Скачать
1 | 0

28-11-2019 20:33  

Отключить всю рекламу на сайте

    Дорогой пользователь! Огромная просьба, поблагодарите релизера, оцените раздачу и оставьте свои комментарий, если Вы скачали Интервью с вампиром через торрент бесплатно! Внесите свою лепту в развитие PiratBit!
    Комментировать посты могут только пользователи прошедшие не сложную регистрацию
    Показать сообщения:    

    Интервью с вампиром через торрент
    Скачать бесплатно Интервью с вампиром
    Интервью с вампиром скачать торрент
    Интервью с вампиром смотреть онлайн
    Cкачать фильм Интервью с вампиром бесплатно
    Интервью с вампиром скачать торрент в хорошем качестве
    Интервью с вампиром смотреть онлайн бесплатно в хорошем качестве


    Вы не можете начинать темы
    Вы не можете отвечать на сообщения
    Вы не можете редактировать свои сообщения
    Вы не можете удалять свои сообщения
    Вы не можете голосовать в опросах
    Вы не можете прикреплять файлы к сообщениям
    Вы можете скачивать файлы