Всегда рабочее зеркало без VPN и Proxy просто перед .vidak.icu напиши любое слово или цифру, Пример http://i2sy.vidak.icu

MVO

2 сезон

1 сезон

1

1 сезон

iTunes

2 сезон

13

1 сезон

Deluxe

pack

Рекомендуем

Пиратка

30

ВАЖНО

RePack

MK11

RePack

jed

RePack

fifa19

RePack

RDR2

RePack

NEED FOR SPEED™ PAYBACK

Кинопоиск HD

6 сезон

 Острые козырьки 6 сезон

Все сериалы

все сериалы на PB.wtf

RePack

FAR CRY 5

Anonymous, нам критически не хватает 5601 руб. на оплату серверов и переферии за Апрель, помоги нам пожалуйста, вся надежда только на тебя. В благодарность мы отключим тебе всю рекламу на сайте!

×
  
Magnet ссылка

Последний рубеж / Homefront (Гэри Фледер) [2013, боевик, криминал, BDRip] [AVO] (А.Гаврилов) pb.wtf

Последний рубеж через торрент pb.wtf

Размер: 1.46 GB | Добавлен: 8 лет назад | Торрент скачан:278 раз
Смотреть онлайн Последний рубеж | Скачать    Ребята, помогите собрать деньги на оплату серверов!!!

22-05-2014 08:09 Последний рубеж Скачать торрент  

Последний рубеж / Homefront Год выхода: 2013
Жанр:  боевик, криминал
Продолжительность: 01:40:34
Перевод: Авторский [А.Гаврилов]
Субтитры: нет

Режиссер: Гэри Фледер

В ролях: Джейсон Стэйтем, Джеймс Франко, Изабела Видович, Вайнона Райдер, Кейт Босворт, Клэнси Браун, Рашель Лефевр, Омар Бенсон Миллер, Маркус Хестер, Фрэнк Грилло

Описание:
Фил Брокер — бывший агент из отдела борьбы с наркотиками. Фил переезжает в небольшой город вместе с семьей в надежде забыть прошлое. Но он узнает, что город только со стороны кажется тихим и спокойным местом, на самом деле он кишит насилием, наркотиками, а всем этим заправляет злодей по кличке Аллигатор…

Sample

Качество: BDRip
Формат: AVI
Видео кодек: XviD
Аудио кодек: AC3
Видео: 720x304 (2.37:1), 23.976 fps, XviD MPEG-4 ~1625 kbps avg, 0.31 bit/pixel
Аудио: 48 kHz, AC3 Dolby Digital, 3/2 (L,C,R,l,r) + LFE ch, ~448.00 kbps avg

Цитата:

За перевод Гаврилова большое спасибо пользователям форума hdtracker.org:
Denis2251 ,-Джосс-, KpucTo161 ,_MyxAmoP_, SavineX, rydanes, dunhill200, Tehnar, chef&chef, milocerd0v, fly32, foxlight, Luka69, Role, nimph, ASUKEVICH, Loki, therox, Brown15, Диммон,Pain_70, carter64, edsz,shtift, Wolf_Larsen, Letyoha3, Xerman13, Rolly Tyler ,feldeger, Iron Man, GaryH, dwser, Hattori, Hanzo, audiolubitel.

General
Complete name : E:\INTERNET\Последний рубеж.avi
Format : AVI
Format/Info : Audio Video Interleave
File size : 1.46 GiB
Duration : 1h 40mn
Overall bit rate : 2 083 Kbps
Movie name : Последний рубеж
Writing application : VirtualDubModRus 1.5.10.2 (build 2542/release)
Writing library : VirtualDubMod build 2542/release

Video
ID : 0
Format : MPEG-4 Visual
Format profile : Advanced Simple@L5
Format settings, BVOP : 2
Format settings, QPel : No
Format settings, GMC : No warppoints
Format settings, Matrix : Custom
Muxing mode : Packed bitstream
Codec ID : XVID
Codec ID/Hint : XviD
Duration : 1h 40mn
Bit rate : 1 626 Kbps
Width : 720 pixels
Height : 304 pixels
Display aspect ratio : 2.35:1
Frame rate : 23.976 fps
Color space : YUV
Chroma subsampling : 4:2:0
Bit depth : 8 bits
Scan type : Progressive
Compression mode : Lossy
Bits/(Pixel*Frame) : 0.310
Stream size : 1.14 GiB (78%)
Writing library : XviD 65

Audio
ID : 1
Format : AC-3
Format/Info : Audio Coding 3
Mode extension : CM (complete main)
Codec ID : 2000
Duration : 1h 40mn
Bit rate mode : Constant
Bit rate : 448 Kbps
Channel(s) : 6 channels
Channel positions : Front: L C R, Side: L R, LFE
Sampling rate : 48.0 KHz
Bit depth : 16 bits
Compression mode : Lossy
Stream size : 322 MiB (22%)
Alignment : Split accross interleaves
Interleave, duration : 42 ms (1.00 video frame)
Interleave, preload duration : 500 ms
скриншот   скриншот   скриншот  
pb.wtf



Скачать Последний рубеж через торрент http://s010.youpic.su/pictures/1391202000/f5f71065cc2c474eb09250096b74df8f.png Скачать, смотреть онлайн Последний рубеж бесплантно в хорошем качестве Описание: Фил Брокер — бывший агент из отдела борьбы с наркотиками. Фил переезжает в небольшой город вместе с семьей в надежде забыть ... 10 10 9
Торрент: Зарегистрирован [2014-05-22 08:09] · скачан: 278 раз
Статус: √ проверено
Размер: 1.46 GB
Как cкачать? Как скачать Последний рубеж через торрент | UTorrent

% Раздел Тема Автор DL S | L
Фильмы (DVD фильмы) [ 5.22 GB ] Последний рубеж / Homefront [2013 DVD9] R5 voovaz Скачать
1 | 0
Фильмы 2013 [DVDrip, WEB-DLRip, HDrip] [ 1.45 GB ] Последний рубеж / Homefront [2013 BDRip / DUB Ворон Скачать
2 | 0
Фильмы [HD 720p, 1080p] (Хороший звук DUB, MVO) [ 12.67 GB ] Последний рубеж / Homefront [2013 BDRip 1080p [ - ["Мосфильм мастер"] Seedtank Скачать
1 | 0
Фильмы (Blu-ray, BD-Remux, HDDVD) [ 37.26 GB ] Последний рубеж / Homefront [2013 Blu-ray [ - ["Мосфильм мастер"] Бумер Скачать
1 | 0
Фильмы 2013 [DVDrip, WEB-DLRip, HDrip] [ 1.46 GB ] Последний рубеж / Homefront [2013 HDRip-AVC] [ - ["Мосфильм мастер"]] От R.G. PiratFilms White Smoke Скачать
1 | 0
Фильмы (Blu-ray, BD-Remux, HDDVD) [ 23.56 GB ] Последний рубеж / Homefront [2013 BD-Remux Д [ - ["Мосфильм мастер"] Seedtank Скачать
1 | 0
Фильмы 2013 [DVDrip, WEB-DLRip, HDrip] [ 1.46 GB ] Последний рубеж / Homefront [2013 BDRip-AVC] [ - ["Мосфильм мастер"] potroks Скачать
1 | 0

28-11-2019 20:33  

Отключить всю рекламу на сайте

22-05-2014 08:40 Последний рубеж Скачать торрент  

перестал смотреть филмьы со стетхемом после адреналина, однотипный человек, даже актером не назовешь!pb.wtf



22-05-2014 09:31 Последний рубеж Скачать торрент  

arahned писал(а):

перестал смотреть филмьы со стетхемом после адреналина, однотипный человек, даже актером не назовешь!

А мне этот "актёр" никогда не нравился.pb.wtf



22-05-2014 10:20 Последний рубеж Скачать торрент  

ну дак он вам по щам надаёт а вы сами нечего не сняли и всех обзываетеpb.wtf



22-05-2014 10:20 Последний рубеж Скачать торрент  

замечательный актёр современного кино один из лучшихpb.wtf



22-05-2014 16:23 Последний рубеж Скачать торрент  

Представляю себе случай.. После первого показа Кавказской пленницы.... Комменты.... Троица однотипные актеры... Ни на что большее они не способны. Смешно и грустно читать иногда шедевры стайки бакланов. Парни не обижайтесь...но правда она такая.pb.wtf



    Дорогой пользователь! Огромная просьба, поблагодарите релизера, оцените раздачу и оставьте свои комментарий, если Вы скачали Последний рубеж через торрент бесплатно!
    Комментировать посты могут только пользователи прошедшие не сложную регистрацию
    Показать сообщения:    

    Последний рубеж через торрент
    Скачать бесплатно Последний рубеж
    Последний рубеж скачать торрент
    Последний рубеж смотреть онлайн
    Cкачать фильм Последний рубеж бесплатно
    Последний рубеж скачать торрент в хорошем качестве
    Последний рубеж смотреть онлайн бесплатно в хорошем качестве


    Вы не можете начинать темы
    Вы не можете отвечать на сообщения
    Вы не можете редактировать свои сообщения
    Вы не можете удалять свои сообщения
    Вы не можете голосовать в опросах
    Вы не можете прикреплять файлы к сообщениям
    Вы можете скачивать файлы