Всегда рабочее зеркало без VPN и Proxy просто перед .vidak.icu напиши любое слово или цифру, Пример http://ujqz.vidak.icu

MVO

2 сезон

1 сезон

1

1 сезон

iTunes

2 сезон

13

1 сезон

Deluxe

pack

Рекомендуем

Пиратка

30

ВАЖНО

RePack

MK11

RePack

jed

RePack

fifa19

RePack

RDR2

RePack

NEED FOR SPEED™ PAYBACK

Кинопоиск HD

6 сезон

 Острые козырьки 6 сезон

Все сериалы

все сериалы на PB.wtf

RePack

FAR CRY 5

Anonymous, нам критически не хватает 5601 руб. на оплату серверов и переферии за Апрель, помоги нам пожалуйста, вся надежда только на тебя. В благодарность мы отключим тебе всю рекламу на сайте!

×
  
Magnet ссылка

И пришел паук / Along Came a Spider (Ли Тамахори / Lee Tamahori) [2001, триллер, криминал, детектив, BDRip-AVC] [VO] (Есарев) + [AVO] (Визгунов) pb.wtf

И пришел паук через торрент pb.wtf

Размер: 2.21 GB | Добавлен: 7 лет 11 мес. назад | Торрент скачан:150 раз
Смотреть онлайн И пришел паук | Скачать    Ребята, помогите собрать деньги на оплату серверов!!!

23-05-2014 06:48 И пришел паук Скачать торрент  

И пришел паук / Along Came a Spider
Год выпуска: 2001
Страна: США, Германия, Канада
Жанр: триллер, криминал, детектив
Продолжительность: 01:42:58
Перевод 1: Одноголосый (закадровый) - Дмитрий Есарев

Перевод 2: Авторский (одноголосый закадровый) - Сергей Визгунов

Cубтитры: нет
Оригинальная аудиодорожка: английский

Режиссер: Ли Тамахори / Lee Tamahori

В ролях: Морган Фриман, Моника Поттер, Майкл Уинкотт, Дилан Бейкер, Мика Бурем, Антон Ельчин, Кимберли Хоторн, Джей О. Сэндерс, Билли Бёрк, Майкл Мориарти, Пенелопа Энн Миллер, Анна Мария Хорсфорд и др.

Описание:
Дочь известного сенатора похищена из закрытой, привилегированной школы. Похититель не выдвигает никаких требований и безжалостно расправляется со всеми, кто пытается встать у него на пути. Единственный человек, которому маньяк позвонил сразу после похищения, был Алекс Кросс.Опытный сыщик понимает, что убийца решил предпочесть выкупу страшную и непредсказуемую игру, на кону которой - жизнь маленькой девочки. У Кросса и сотрудницы службы безопасности Джизи Флэнниген остается очень мало времени, чтобы спасти ребенка...



Файл:

Качество: BDRip-AVC [Blu-Ray 1080p]
Формат видео: MKV
Видео кодек: h.264
Аудио кодек: AC3
Видео: V_MPEG4/ISO/AVC, 1056x448 (2,35:1), 1850 kbps, 23.976 fps, 0.163 bit/pixel
Аудио 1: 48 kHz, AC3 Dolby Digital, 3/2 (L,C,R,l,r) + LFE ch, ~448.00 kbps avg - Есарев
Аудио 2: 48 kHz, AC3 Dolby Digital, 3/2 (L,C,R,l,r) + LFE ch, ~384.00 kbps avg - Визгунов
Аудио 3: 48 kHz, AC3 Dolby Digital, 3/2 (L,C,R,l,r) + LFE ch, ~384.00 kbps avg - Eng
Перевод Дмитрия Есарева доступен благодаря заказу будулайроманова.
Работа со звуком - Переводман.
Общее
Уникальный идентификатор : 189478194445276877829443163047738907393 (0x8E8C2C3FD5FDD049BF9AF223BB029B01)
Формат : Matroska
Версия формата : Version 2
Размер файла : 2,21 Гбайт
Продолжительность : 1 ч. 42 м.
Общий поток : 3067 Кбит/сек
Дата кодирования : UTC 2014-05-21 16:42:10
Программа кодирования : mkvmerge v2.9.7 ('Tenderness') built on Jul 1 2009 18:43:35
Библиотека кодирования : libebml v0.7.7 + libmatroska v0.8.1
Видео
Идентификатор : 1
Формат : AVC
Формат/Информация : Advanced Video Codec
Профиль формата : High@L4.1
Параметр CABAC формата : Да
Параметр ReFrames формата : 8 кадров
Идентификатор кодека : V_MPEG4/ISO/AVC
Продолжительность : 1 ч. 42 м.
Битрейт : 1850 Кбит/сек
Ширина : 1056 пикселей
Высота : 448 пикселей
Соотношение сторон : 2,35:1
Режим частоты кадров : Постоянный
Частота кадров : 23,976 кадра/сек
Цветовое пространство : YUV
Субдискретизация насыщенности : 4:2:0
Битовая глубина : 8 бит
Тип развёртки : Прогрессивная
Бит/(Пиксели*Кадры) : 0.163
Размер потока : 1,29 Гбайт (58%)
Библиотека кодирования : x264 core 112 r1834 a51816a
Настройки программы : cabac=1 / ref=8 / deblock=1:-2:-1 / analyse=0x3:0x113 / me=umh / subme=10 / psy=1 / psy_rd=1.10:0.20 / mixed_ref=1 / me_range=32 / chroma_me=1 / trellis=2 / 8x8dct=1 / cqm=0 / deadzone=21,11 / fast_pskip=0 / chroma_qp_offset=-3 / threads=6 / sliced_threads=0 / nr=0 / decimate=1 / interlaced=0 / constrained_intra=0 / bframes=3 / b_pyramid=2 / b_adapt=2 / b_bias=0 / direct=3 / weightb=1 / open_gop=0 / weightp=2 / keyint=250 / keyint_min=23 / scenecut=40 / intra_refresh=0 / rc_lookahead=60 / rc=2pass / mbtree=1 / bitrate=1850 / ratetol=1.0 / qcomp=0.60 / qpmin=0 / qpmax=51 / qpstep=4 / cplxblur=20.0 / qblur=0.5 / ip_ratio=1.40 / aq=1:1.00
Default : Да
Forced : Нет
Аудио #1
Идентификатор : 2
Формат : AC-3
Формат/Информация : Audio Coding 3
Расширение режима : CM (complete main)
Параметр Endianness формата : Big
Идентификатор кодека : A_AC3
Продолжительность : 1 ч. 42 м.
Вид битрейта : Постоянный
Битрейт : 448 Кбит/сек
Каналы : 6 каналов
Расположение каналов : Front: L C R, Side: L R, LFE
Частота : 48,0 КГц
Битовая глубина : 16 бит
Метод сжатия : С потерями
Размер потока : 330 Мбайт (15%)
Заголовок : Есарев
Язык : Russian
Default : Да
Forced : Нет
Аудио #2
Идентификатор : 3
Формат : AC-3
Формат/Информация : Audio Coding 3
Расширение режима : CM (complete main)
Параметр Endianness формата : Big
Идентификатор кодека : A_AC3
Продолжительность : 1 ч. 42 м.
Вид битрейта : Постоянный
Битрейт : 384 Кбит/сек
Каналы : 6 каналов
Расположение каналов : Front: L C R, Side: L R, LFE
Частота : 48,0 КГц
Битовая глубина : 16 бит
Метод сжатия : С потерями
Размер потока : 283 Мбайт (13%)
Заголовок : Визгунов
Язык : Russian
Default : Нет
Forced : Нет
Аудио #3
Идентификатор : 4
Формат : AC-3
Формат/Информация : Audio Coding 3
Расширение режима : CM (complete main)
Параметр Endianness формата : Big
Идентификатор кодека : A_AC3
Продолжительность : 1 ч. 42 м.
Вид битрейта : Постоянный
Битрейт : 384 Кбит/сек
Каналы : 6 каналов
Расположение каналов : Front: L C R, Side: L R, LFE
Частота : 48,0 КГц
Битовая глубина : 16 бит
Метод сжатия : С потерями
Размер потока : 283 Мбайт (13%)
Заголовок : Оригинал
Язык : English
Default : Нет
Forced : Нет
pb.wtf



Скачать И пришел паук через торрент https://pic1.kartinco.top/images/61/iakxx.jpg Скачать, смотреть онлайн И пришел паук бесплантно в хорошем качестве Описание:Дочь известного сенатора похищена из закрытой, привилегированной школы. Похититель не выдвигает никаких требований и безжалостно ... 9.9 10 7
Info! Золотая раздача, скачанное не засчитывается.
Торрент: Зарегистрирован [2014-05-23 06:48] · скачан: 150 раз
Статус: √ проверено
Размер: 2.21 GB
Как cкачать? Как скачать И пришел паук через торрент | UTorrent

% Раздел Тема Автор DL S | L
Фильмы 2001-2005 [ 2.19 GB ] И пришел паук / Along Came a Spider [ 2001 Германия BDRip ] MVO Ворон Скачать
1 | 0
Фильмы [HD 720p, 1080p] (Хороший звук DUB, MVO) [ 3.99 GB ] И пришел паук / Along Came a Spider [2001 BDRip 720p] diletant Скачать
1 | 0
Фильмы 2001-2005 [ 1.74 GB ] И пришел паук / Along Came a Spider [2001 DVDRip] Lil Badun Скачать
1 | 0

28-11-2019 20:33  

Отключить всю рекламу на сайте

23-05-2014 07:07 И пришел паук Скачать торрент  

Шикарный фильм...перевод вполне хороший и местами нужный (русс.мат)pb.wtf



23-05-2014 09:31 И пришел паук Скачать торрент  

imdragon80 писал(а):

Шикарный фильм...перевод вполне хороший и местами нужный (русс.мат)

Согласен!pb.wtf



29-05-2014 20:14 И пришел паук Скачать торрент  

imdragon80, GEKADOL, поддерживаю фильм отличный и перевод на уровне pb.wtf



    Дорогой пользователь! Огромная просьба, поблагодарите релизера, оцените раздачу и оставьте свои комментарий, если Вы скачали И пришел паук через торрент бесплатно!
    Комментировать посты могут только пользователи прошедшие не сложную регистрацию
    Показать сообщения:    

    И пришел паук через торрент
    Скачать бесплатно И пришел паук
    И пришел паук скачать торрент
    И пришел паук смотреть онлайн
    Cкачать фильм И пришел паук бесплатно
    И пришел паук скачать торрент в хорошем качестве
    И пришел паук смотреть онлайн бесплатно в хорошем качестве


    Вы не можете начинать темы
    Вы не можете отвечать на сообщения
    Вы не можете редактировать свои сообщения
    Вы не можете удалять свои сообщения
    Вы не можете голосовать в опросах
    Вы не можете прикреплять файлы к сообщениям
    Вы можете скачивать файлы