Лицензия

MVO

1

1 сезон

Лицензия

Лицензия

13

MVO

1 сезон

Deluxe Edition

pack

Рекомендуем

30

Repack

ВАЖНО

ВАЖНО

Ghostwire

RePack

jed

RePack

fifa19

RePack

RDR2

RePack

NEED FOR SPEED™ PAYBACK

RePack

Кинопоиск HD

 Острые козырьки 6 сезон

6 сезон

FAR CRY 6

RePack

Лицензия

MVO

1

1 сезон

1 сезон

Лицензия

  

Лего. Фильм / The Lego Movie (Фил Лорд, Кристофер Миллер) [2014 г., мультфильм, фэнтези, комедия, приключения, семейный, WEB-DLRip, Дубляж (iTunes)]

Лего. Фильм через торрент pb.wtf

Размер: 2.19 GB | Добавлен: 8 лет 4 мес. назад | Торрент скачан:1049 раз
Смотреть онлайн Лего. Фильм | Скачать   

21-05-2014 17:07 Лего. Фильм Скачать торрент  

Лего. Фильм / The Lego Movie
Год выпуска: 2014
Страна: Австралия, США, Дания / Warner Bros., Village Roadshow Pictures, LEGO
Жанр: мультфильм, фэнтези, комедия, приключения, семейный
Продолжительность: 01:40:33
Перевод: Дубляж (iTunes)

Режиссер: Фил Лорд, Кристофер Миллер

В ролях: Крис Прэтт, Уилл Феррелл, Элизабет Бэнкс, Уилл Арнетт, Лиам Нисон, Морган Фриман, Крэйг Берри, Элисон Бри, Дэвид Берроуз, Энтони Дэниелс

Описание: Обычная лего-фигурка соглашается присоединиться к походу против злого лего-диктатора, планирующего склеить вместе всю вселенную…

Качество: WEB-DLRip
Формат: AVI
Видео кодек: XviD
Аудио кодек: AC3
Видео: 720x304 (2.37:1), 23.976 fps, XviD build 50 ~2724 kbps avg, 0.52 bit/pixel
Аудио: 48 kHz, AC3 Dolby Digital, 3/2 (L,C,R,l,r) + LFE ch, ~384 kbps


Общее
Полное имя : H:\кино\The Lego Movie 2014.HDRip.avi
Формат : AVI
Формат/Информация : Audio Video Interleave
Профиль формата : OpenDML
Размер файла : 2,19 Гбайт
Продолжительность : 1 ч. 40 м.
Общий поток : 3115 Кбит/сек
Программа кодирования : VirtualDubMod 1.5.10.3 | www.virtualdub-fr.org || (build 2550/release)
Библиотека кодирования : VirtualDubMod build 2550/release

Видео
Идентификатор : 0
Формат : MPEG-4 Visual
Профиль формата : Advanced [email protected]
Параметр BVOP формата : 2
Параметр QPel формата : Нет
Параметр GMC формата : Без точки перехода
Параметр матрицы формата : Default (H.263)
Идентификатор кодека : XVID
Идентификатор кодека/Подсказка : XviD
Продолжительность : 1 ч. 40 м.
Битрейт : 2719 Кбит/сек
Ширина : 720 пикселей
Высота : 304 пикселя
Соотношение сторон : 2,35:1
Частота кадров : 23,976 кадра/сек
Цветовое пространство : YUV
Субдискретизация насыщенности : 4:2:0
Битовая глубина : 8 бит
Тип развёртки : Прогрессивная
Метод сжатия : С потерями
Бит/(Пиксели*Кадры) : 0.518
Размер потока : 1,91 Гбайт (87%)
Библиотека кодирования : XviD 1.2.1 (UTC 2008-12-04)

Аудио
Идентификатор : 1
Формат : AC-3
Формат/Информация : Audio Coding 3
Расширение режима : CM (complete main)
Параметр Endianness формата : Big
Идентификатор кодека : 2000
Продолжительность : 1 ч. 40 м.
Вид битрейта : Постоянный
Битрейт : 384 Кбит/сек
Каналы : 6 каналов
Расположение каналов : Front: L C R, Side: L R, LFE
Частота : 48,0 КГц
Битовая глубина : 16 бит
Метод сжатия : С потерями
Размер потока : 276 Мбайт (12%)
Выравнивание : Разделение по промежуткам
Продолжительность промежутка : 42 мс. (1,00 видеокадр)
Время предзагрузки промежутка : 500 мс.




Скачать Лего. Фильм через торрент https://pic1.kartinco.top/images/61/cs53v.jpg Скачать, смотреть онлайн Лего. Фильм бесплантно в хорошем качестве Описание: Обычная лего-фигурка соглашается присоединиться к походу против злого лего-диктатора, планирующего склеить вместе всю ... 9.7 10 48
Торрент: Зарегистрирован [2014-05-25 10:40] · скачан: 1 049 раз
Статус: √ проверено
Размер: 2.19 GB
Как cкачать? Как скачать Лего. Фильм через торрент | UTorrent

% Раздел Тема Автор DL S | L
Зарубежные Мультфильмы (BDRip 1080p, 720p, Blu-ray, BD-Remux) [ 5.75 GB ] Лего. Фильм / The Lego Movie | Лицензия | 1080p, Дублированный - [Лицензия _denis_100 Скачать
1 | 0
Иностранные мультфильмы [ 2.18 GB ] Лего. Фильм / The Lego Movie | Лицензия | BDRip-AVC potroks Скачать
1 | 0
Зарубежные Мультфильмы (BDRip 1080p, 720p, Blu-ray, BD-Remux) [ 24.34 GB ] Лего. Фильм / The Lego Movie | Лицензия+AVO | BD Remux marik_judas Скачать
1 | 0
Зарубежные Мультфильмы (DVD) [ 5.33 GB ] Лего. Фильм / The Lego Movie | | 2014, мультфильм, фэнтези, комедия, приключения, семейный, DVD9 voovaz Скачать
1 | 0
Иностранные мультфильмы [ 1.46 GB ] Лего. Фильм / The Lego Movie | Лицензия | BDRip-AVC potroks Скачать
2 | 0
Зарубежные Мультфильмы (BDRip 1080p, 720p, Blu-ray, BD-Remux) [ 18.43 GB ] Лего. Фильм / The Lego Movie | iTunes | 2014, мультфильм, фэнтези, комедия, BD-Remux, Дублированный, iTunes Seedtank Скачать
1 | 0
Зарубежные Мультфильмы (BDRip 1080p, 720p, Blu-ray, BD-Remux) [ 7.3 GB ] Лего. Фильм / The Lego Movie | iTunes | 1080p, Дублированный, iTunes Seedtank Скачать
1 | 0



Последний раз редактировалось: coc900 (2014-05-25 10:40), всего редактировалось 1 раз

28-11-2019 20:33  

Отключить вcю реклaмy на сайте

21-05-2014 17:26 Лего. Фильм Скачать торрент  

Стоит смотреть?



21-05-2014 17:27 Лего. Фильм Скачать торрент  

Deent писал(а):

Стоит смотреть?

почему бы и нет



25-05-2014 10:42 Лего. Фильм Скачать торрент  

Релиз обновлен!Просьба перекачать торрент файл



25-05-2014 10:56 Лего. Фильм Скачать торрент  

Deent, норм мульт по крайней мере оригинально



25-05-2014 17:47 Лего. Фильм Скачать торрент  

Прекрасный фильм, с удовольствием посмотрел, не жалею времени совершенно!



29-05-2014 09:58 Лего. Фильм Скачать торрент  

Главное это упоротся чем нибудь по крепче



30-05-2014 06:23 Лего. Фильм Скачать торрент  

.....твою мышь!!! sarcastic



    Дорогой пользователь! Огромная просьба, поблагодарите релизера, оцените раздачу и оставьте свои комментарий, если Вы скачали Лего. Фильм через торрент бесплатно!!
    Комментировать посты могут только пользователи прошедшие не сложную регистрацию
    Показать сообщения:    


    Лего. Фильм через торрент
    Скачать бесплатно Лего. Фильм
    Лего. Фильм скачать торрент
    Лего. Фильм смотреть онлайн
    Cкачать фильм Лего. Фильм бесплатно
    Лего. Фильм скачать торрент в хорошем качестве
    Лего. Фильм смотреть онлайн бесплатно в хорошем качестве
    Вы не можете начинать темы
    Вы не можете отвечать на сообщения
    Вы не можете редактировать свои сообщения
    Вы не можете удалять свои сообщения
    Вы не можете голосовать в опросах
    Вы не можете прикреплять файлы к сообщениям
    Вы можете скачивать файлы