Всегда рабочее зеркало без VPN и Proxy просто перед .vidak.icu напиши любое слово или цифру, Пример http://24s8.vidak.icu

MVO

2 сезон

2 сезон

1

1 сезон

iTunes

2 сезон

13

1 сезон

Deluxe

pack

Рекомендуем

Пиратка

30

ВАЖНО

RePack

MK11

RePack

jed

RePack

fifa19

RePack

RDR2

RePack

NEED FOR SPEED™ PAYBACK

Кинопоиск HD

6 сезон

 Острые козырьки 6 сезон

Все сериалы

все сериалы на PB.wtf

RePack

FAR CRY 5

Anonymous, нам критически не хватает 5601 руб. на оплату серверов и переферии за Апрель, помоги нам пожалуйста, вся надежда только на тебя. В благодарность мы отключим тебе всю рекламу на сайте!

×
  
Magnet ссылка

Опасная зона / Danger Zone (Аллан Истмэн / Allan Eastman) [1995, боевик, DVDRip] [AVO] (Андрей Гаврилов) pb.wtf

Опасная зона через торрент pb.wtf

Размер: 1.45 GB | Добавлен: 7 лет 11 мес. назад | Торрент скачан:68 раз
Смотреть онлайн Опасная зона | Скачать    Ребята, помогите собрать деньги на оплату серверов!!!

04-06-2014 12:52 Опасная зона Скачать торрент  

Опасная зона / Danger Zone
Год выпуска: 1995
Страна: США, Канада, ЮАР
Жанр: боевик
Продолжительность: 01:28:21
Перевод: Авторский (одноголосый, закадровый)[Андрей Гаврилов]
Cубтитры: нет
Оригинальная аудиодорожка: нет

Режиссер: Аллан Истмэн / Allan Eastman

В ролях: Билли Зейн, Роберт Дауни мл., Кэри-Хироюки Тагава, Рон Сильвер, Лиза Коллинз, Патрик Шай, и другие

Описание: Друг горного инженера Джима Моргана ввёз в Африку украденные урановые стержни в бочках токсичных отходов, а после налета злодеев друг погиб, а самого Джима обвинили в отравлении всей воды в округе. Позже было объявлено, что из-за этого погибло много людей. Через пару лет Джим возвращается и находит друга живым - оказывается, жителей местных деревень просто зверски вырезали, а вся каша заварена из-за баснословно дорогих стержней, нужных северокорейской разведке. Инженер показывает себя крепким бойцом и находит любовь в виде ученой, занимающейся проблемами очищения воды. (Иванов М.)



Качество видео: DVDRip
Формат: AVI
Видео кодек: XvID
Аудио кодек: AC3
Видео: 704x528 (1.33:1), 25 fps, XviD build 50 ~2150 kbps avg, 0.23 bit/pixel
Аудио: 48 kHz, AC3 Dolby Digital, 2/0 (L,R) ch, ~192.00 kbps avg

Цитата:

Исходный видеоряд с СГ.
За звуковую дорожку с переводом Андрея Гаврилова большое спасибо Danil6300.
За видеоряд, синхронизацию звуковой дороги и работу со звуком огромная благодарность ale_x2008.

Обращаю внимание, что полный перевод А. Гаврилова на этот фильм в сети впервые.

General
Complete name : C:\Users\Сергей\Downloads\Опасная зона.avi
Format : AVI
Format/Info : Audio Video Interleave
File size : 1.45 GiB
Duration : 1h 28mn
Overall bit rate : 2 352 Kbps

Video
ID : 0
Format : MPEG-4 Visual
Format profile : Advanced Simple@L5
Format settings, BVOP : 2
Format settings, QPel : No
Format settings, GMC : No warppoints
Format settings, Matrix : Default (H.263)
Codec ID : XVID
Codec ID/Hint : XviD
Duration : 1h 28mn
Bit rate : 2 150 Kbps
Width : 704 pixels
Height : 528 pixels
Display aspect ratio : 4:3
Frame rate : 25.000 fps
Color space : YUV
Chroma subsampling : 4:2:0
Bit depth : 8 bits
Scan type : Progressive
Compression mode : Lossy
Bits/(Pixel*Frame) : 0.231
Stream size : 1.33 GiB (91%)
Writing library : XviD 1.2.1 (UTC 2008-12-04)

Audio
ID : 1
Format : AC-3
Format/Info : Audio Coding 3
Mode extension : CM (complete main)
Format settings, Endianness : Big
Codec ID : 2000
Duration : 1h 28mn
Bit rate mode : Constant
Bit rate : 192 Kbps
Channel(s) : 2 channels
Channel positions : Front: L R
Sampling rate : 48.0 KHz
Bit depth : 16 bits
Compression mode : Lossy
Stream size : 121 MiB (8%)
Alignment : Split accross interleaves
Interleave, duration : 40 ms (1.00 video frame)
Interleave, preload duration : 500 ms
pb.wtf



Скачать Опасная зона через торрент http://i61.fastpic.ru/big/2014/0602/05/8261ead0c0634de596910fe28d596c05.jpg Скачать, смотреть онлайн Опасная зона бесплантно в хорошем качестве Описание: Друг горного инженера Джима Моргана ввёз в Африку украденные урановые стержни в бочках токсичных отходов, а после налета злодеев ... 10 10 3
Торрент: Зарегистрирован [2014-06-04 12:52] · скачан: 68 раз
Статус: √ проверено
Размер: 1.45 GB
Как cкачать? Как скачать Опасная зона через торрент | UTorrent

% Раздел Тема Автор DL S | L
National Geographic [ 2.02 GB ] Суперавианосцы: Аэропорт в открытом море + В зоне опасности / Supercarrier: Airport at sea + Into The Danger Zone [2007 Документальный HDTVRip ] кэп Скачать
1 | 0

28-11-2019 20:33  

Отключить всю рекламу на сайте

    Дорогой пользователь! Огромная просьба, поблагодарите релизера, оцените раздачу и оставьте свои комментарий, если Вы скачали Опасная зона через торрент бесплатно!
    Комментировать посты могут только пользователи прошедшие не сложную регистрацию
    Показать сообщения:    

    Опасная зона через торрент
    Скачать бесплатно Опасная зона
    Опасная зона скачать торрент
    Опасная зона смотреть онлайн
    Cкачать фильм Опасная зона бесплатно
    Опасная зона скачать торрент в хорошем качестве
    Опасная зона смотреть онлайн бесплатно в хорошем качестве


    Вы не можете начинать темы
    Вы не можете отвечать на сообщения
    Вы не можете редактировать свои сообщения
    Вы не можете удалять свои сообщения
    Вы не можете голосовать в опросах
    Вы не можете прикреплять файлы к сообщениям
    Вы можете скачивать файлы