Всегда рабочее зеркало без VPN и Proxy просто перед .vidak.icu напиши любое слово или цифру, Пример http://3x7y.vidak.icu

MVO

MVO

1 сезон

1

1 сезон

iTunes

1 сезон

13

1 сезон

Deluxe

pack

Рекомендуем

Repack

30

ВАЖНО

RePack

MK11

RePack

jed

RePack

fifa19

RePack

RDR2

RePack

NEED FOR SPEED™ PAYBACK

Кинопоиск HD

6 сезон

 Острые козырьки 6 сезон

Все сериалы

все сериалы на PB.wtf

RePack

FAR CRY 5
  
Magnet ссылка

(Евгений Попов, Эльдар Гузаиров) YouTube - мастер [2014] [SWF] pb.wtf

через торрент pb.wtf

Размер: 7.82 GB | Добавлен: 8 лет 1 мес. назад | Торрент скачан:267 раз
Смотреть онлайн | Скачать    Ребята, помогите собрать деньги на оплату серверов!!!

12-06-2014 11:24 Скачать торрент  

YouTube - мастер Производитель: Россия
Автор (издатель): Евгений Попов, Эльдар Гузаиров
Год выпуска: 2014
Язык: русский
Продолжительность: ~11:00:00
Формат: unpacked

Системные требования :
• Операционная система • Windows® XP • Windows® Vista • Windows® 7
• Процессор Pentium II 500 Мгц
• 128 Мб оперативной памяти
• Разрешение экрана 1024x768 с глубиной цвета 16 бит
• Наличие Adobe Flash Player 10 или KMPlayer

Описание:
Этот курс, создал всем известный информационный автор — Евгений Попов.
Данный видео-курс научит Вас всем фишкам, с помощью которых Вы раскрутите свой бренд и будете получать постоянную прибыль со своего видео-канала на YouTube
Этот замечательный курс, создал всем известный информационный автор — Евгений Попов. Данный видео-курс научит Вас всем фишкам, с помощью которых Вы уважаемый читатель раскрутите свой бренд и будете получать постоянную прибыль со своего видео-канала на YouTube или получать оттуда трафик на свой ресурс и зарабатывать дополнительные или основные деньги.

Помимо создания своего канала и привлечения трафика на свои проэкты в курс YouTube Мастер вошли уроки для авторов, которые уже записывают свои видео.

Курс подходит абсолютно всем! В том числе зеленым новичкам, которые никогда не слышали и не смотрели видео на видео сервисе YouTube, а также для тех кто не умеет записывать видео и ничего об этом не слышал.
Технические моменты (22 урока).
Здесь рассматриваются все функции сервиса YouTube, которые вы должны уметь грамотно использовать. Начиная от создания канала и заливки видео, заканчивая защитой канала от взлома и притягивающими значками для ваших видео.
Маркетинговые фишки (13 уроков).
В этом разделе рассматриваются все фишки, которые делают канал популярным, а также правила ведения канала для разного рода бизнесов.
Продвижение видео (12 уроков).
Из уроков этого раздела вы узнаете множество решений, которые позволяют с небольшим бюджетом раскручивать ваши ролики и привлекать к их просмотру максимальное количество людей. Сюда же включены уроки по монетизации вашего канала.
Умная настройка каналов.
Это небольшой курс, но в нем собраны секреты от профессионалов по правильной настройке видео-канала.

Молниеносная раскрутка канала.
С помощью этого видеокурса сможете получить первую тысячу подписчиков за несколько дней.

Способы заработка на своем канале.
Этот курс научить Вас зарабатывать на YouTube и развеет все сомнения о заработке на этом сервисе.
YouTube Аналитика.
Здесь вы научитесь анализировать все показатели своего видео-канала. Сразу скажу, что анализ, это один из самых важных моментов в успешности.
Youtube для бизнесмена.
Youtube для видеоблоггера.
Основы видеомонтажа в Premiere Pro.
Эффектные заставки для вашего видео.
Съемка на зеленом фоне. (NEW)
Оборудование для видеосъемки. (NEW)
Общее
Полное имя : F:\Видеоуроки\YouTubeMaster
Формат : MPEG-4
Профиль формата : Base Media / Version 2
Идентификатор кодека : mp42
Режим общего битрейта : Переменный
Общий поток : 734 Кбит/сек
Дата кодирования : UTC 2014-04-20 09:38:01
Дата пометки : UTC 2014-04-20 09:38:01

Видео
Идентификатор : 1
Формат : AVC
Формат/Информация : Advanced Video Codec
Профиль формата : [email protected]
Параметр CABAC формата : Нет
Параметр ReFrames формата : 3 кадра
Параметр GOP формата : M=1, N=75
Идентификатор кодека : avc1
Идентификатор кодека/Информация : Advanced Video Coding
Битрейт : 622 Кбит/сек
Ширина : 1280 пикселей
Высота : 720 пикселей
Соотношение сторон : 16:9
Режим частоты кадров : Переменный
Частота кадров : 15,000 кадров/сек
Минимальная частота кадров : 15,000 кадров/сек
Максимальная частота кадров : 15,008 кадров/сек
Цветовое пространство : YUV
Субдискретизация насыщенности : 4:2:0
Битовая глубина : 8 бит
Тип развёртки : Прогрессивная
Бит/(Пиксели*Кадры) : 0.045
Размер потока : 52,4 Мбайт (85%)
Размер потока оригинала : 52,4 Мбайт (85%)
Язык : English
Дата кодирования : UTC 2014-04-20 09:38:01
Дата пометки : UTC 2014-04-20 09:38:01
mdhd_Duration : 705600

Аудио
Идентификатор : 2
Формат : AAC
Формат/Информация : Advanced Audio Codec
Профиль формата : LC
Идентификатор кодека : 40
Вид битрейта : Переменный
Битрейт : 110 Кбит/сек
Максимальный битрейт : 197 Кбит/сек
Каналы : 2 канала
Расположение каналов : Front: L R
Частота : 44,1 КГц
Метод сжатия : С потерями
Размер потока : 9,22 Мбайт (15%)
Размер потока оригинала : 9,22 Мбайт (15%)
Язык : English
Дата кодирования : UTC 2014-04-20 09:38:01
Дата пометки : UTC 2014-04-20 09:38:01
mdhd_Duration : 705608
Качество: PCRec
Формат видео: SWF, MP4
Видео кодек: AVC
Аудио кодек: AAC

Видео: mp4, 1280х720, 16 : 9, 26.2 Мбіт/сек ,30.000 кадр/сек
Аудио: AAC, 110 Кбит/сек, 44.1 кГц, ,2 каналаpb.wtf



Скачать через торрент http://i63.fastpic.ru/big/2014/0612/85/bec10144ccc2ffe1b1b7f78213411b85.jpeg Скачать, смотреть онлайн бесплантно в хорошем качестве Описание:Этот курс, создал всем известный информационный автор — Евгений Попов.Данный видео-курс научит Вас всем фишкам, с помощью которых ... 9.9 10 7
Торрент: Зарегистрирован [2014-06-12 11:24] · скачан: 267 раз
Статус: √ проверено
Размер: 7.82 GB
Как cкачать? Как скачать через торрент | UTorrent

28-11-2019 20:33  

Отключить вcю реклaмy на сайте

    Дорогой пользователь! Огромная просьба, поблагодарите релизера, оцените раздачу и оставьте свои комментарий, если Вы скачали через торрент бесплатно!
    Комментировать посты могут только пользователи прошедшие не сложную регистрацию
    Показать сообщения:    

    через торрент
    Скачать бесплатно
    скачать торрент
    смотреть онлайн
    Cкачать фильм бесплатно
    скачать торрент в хорошем качестве
    смотреть онлайн бесплатно в хорошем качестве


    Вы не можете начинать темы
    Вы не можете отвечать на сообщения
    Вы не можете редактировать свои сообщения
    Вы не можете удалять свои сообщения
    Вы не можете голосовать в опросах
    Вы не можете прикреплять файлы к сообщениям
    Вы можете скачивать файлы