Всегда рабочее зеркало без VPN и Proxy просто перед .vidak.icu напиши любое слово или цифру, Пример http://jt7w.vidak.icu

MVO

Лицензия

1 сезон

1

1 сезон

iTunes

1 сезон

13

1 сезон

Deluxe

pack

Рекомендуем

Пиратка

30

ВАЖНО

RePack

MK11

RePack

jed

RePack

fifa19

RePack

RDR2

RePack

NEED FOR SPEED™ PAYBACK

Кинопоиск HD

6 сезон

 Острые козырьки 6 сезон

Все сериалы

все сериалы на PB.wtf

RePack

FAR CRY 5

Anonymous, нам критически не хватает 2100 руб. на оплату серверов и переферии за МАЙ, помоги нам пожалуйста, вся надежда только на тебя. В благодарность мы отключим тебе всю рекламу на сайте!

×
  
Magnet ссылка

Король Лев / The Lion King 60 fps (Роджер Аллерс / Roger Allers, Роб Минкофф / Rob Minkoff) [1994, США, мультфильм, мюзикл, драма, BDRip 1080p,Профессиональный [Дубляж] pb.wtf

Король Лев через торрент pb.wtf

Размер: 7.94 GB | Добавлен: 7 лет 11 мес. назад | Торрент скачан:786 раз
Смотреть онлайн Король Лев | Скачать    Ребята, помогите собрать деньги на оплату серверов!!!

04-07-2014 14:44 Король Лев Скачать торрент  

Король Лев / The Lion King
Год выпуска: 1994
Страна: США
Жанр: мультфильм, мюзикл, драма, приключения, семейный
Продолжительность: 01:28:23
Перевод: Профессиональный [Дубляж]
Авторский (А.Гаврилов)
Авторский (Ю.Живов)
Субтитры: Русские (полные), Английские (полные)

Режиссер: Роджер Аллерс / Roger Allers, Роб Минкофф / Rob Minkoff
В ролях: Мэттью Бродерик (Adult Simba, озвучка), Джереми Айронс (Scar, озвучка), Нэйтан Лейн (Timon, озвучка), Эрни Сабелла (Pumbaa, озвучка), Джеймс Эрл Джонс (Mufasa, озвучка), Мойра Келли (Adult Nala, озвучка), Роуэн Эткинсон (Zazu, озвучка), Вупи Голдберг (Shenzi, озвучка), Чич Марин (Banzai, озвучка), Джонатан Тейлор Томас (Young Simba, озвучка), Никета Калам (Young Nala, озвучка), Роберт Гийом (Rafiki, озвучка)

Описание: У величественного Короля-Льва Муфасы рождается наследник по имени Симба. Уже в детстве любознательный малыш становится жертвой интриг своего завистливого дяди Шрама, мечтающего о власти.
Симба познаёт горе утраты, предательство и изгнание, но в конце концов обретает верных друзей и находит любимую. Закалённый испытаниями, он в нелёгкой борьбе отвоёвывает своё законное место в «Круге жизни», осознав, что значит быть настоящим Королём.

kinopoisk.ru: 8.796 (188 612)
imdb.com: 8.50 (429 869)
MPAA: G - Нет возрастных ограничений

Качество: BDRip 1080p
Формат: MKV
Видео кодек: AVC
Аудио кодек: AC3
Видео: AVC, 1920x1080 (16:9), 10689 kbps, 59,940 fps, 0,086 bpp
Аудио дубляж: AC3 / 5.1 / 48 kHz / 640 kbps / 16 bit
Аудио одноголосый закадровый, А.Гаврилов (ранний): AC3 / 5.1 / 48 kHz / 448 kbps / 16 bit
Аудио одноголосый закадровый, Ю.Живов : AC3 / 5.1 / 48 kHz / 448 kbps / 16 bit
Аудио оригинал: AC3 / 5.1 / 48 kHz / 640 kbps / 16 bit

Сообщество
Автор Рипа


Общее
Уникальный идентификатор : 191589759930646040153034761176124473528 (0x9022D877330F4EFAB18E58C1ACA3C0B8)
Полное имя : C:\закачки\Korol.Lev.(1994).BDRip.1080p.[envy].[60fps].mkv
Формат : Matroska
Версия формата : Version 2
Размер файла : 7,94 Гбайт
Продолжительность : 1 ч. 28 м.
Общий поток : 12,9 Мбит/сек
Название фильма : Король Лев.(1994).BDRip.1080p.[envy].[60fps]
Дата кодирования : UTC 2013-12-08 06:53:17
Программа кодирования : mkvmerge v5.8.0 ('No Sleep / Pillow') built on Sep 2 2012 15:37:04
Библиотека кодирования : libebml v1.2.3 + libmatroska v1.3.0

Видео
Идентификатор : 1
Формат : AVC
Формат/Информация : Advanced Video Codec
Профиль формата : High@L4.1
Параметр CABAC формата : Да
Параметр ReFrames формата : 4 кадра
Идентификатор кодека : V_MPEG4/ISO/AVC
Продолжительность : 1 ч. 28 м.
Битрейт : 10,7 Мбит/сек
Ширина : 1920 пикселей
Высота : 1080 пикселей
Соотношение сторон : 16:9
Режим частоты кадров : Постоянный
Частота кадров : 59,880 кадров/сек
Частота кадров в оригинале : 59,940 кадров/сек
Цветовое пространство : YUV
Субдискретизация насыщенности : 4:2:0
Битовая глубина : 8 бит
Тип развёртки : Прогрессивная
Бит/(Пиксели*Кадры) : 0.086
Размер потока : 6,44 Гбайт (81%)
Заголовок : Король Лев.(1994).BDRip.1080p.[envy].[60fps]
Библиотека кодирования : x264 core 140 r2377 1ca7bb9
Настройки программы : cabac=1 / ref=4 / deblock=1:-1:-1 / analyse=0x3:0x133 / me=umh / subme=10 / psy=1 / psy_rd=1.00:0.00 / mixed_ref=1 / me_range=32 / chroma_me=1 / trellis=2 / 8x8dct=1 / cqm=0 / deadzone=21,11 / fast_pskip=0 / chroma_qp_offset=-2 / threads=12 / lookahead_threads=2 / sliced_threads=0 / nr=0 / decimate=1 / interlaced=0 / bluray_compat=0 / constrained_intra=0 / bframes=7 / b_pyramid=2 / b_adapt=2 / b_bias=0 / direct=3 / weightb=1 / open_gop=0 / weightp=2 / keyint=250 / keyint_min=25 / scenecut=40 / intra_refresh=0 / rc=2pass / mbtree=0 / bitrate=10689 / ratetol=2.0 / qcomp=0.60 / qpmin=0 / qpmax=69 / qpstep=4 / cplxblur=20.0 / qblur=0.5 / ip_ratio=1.40 / pb_ratio=1.30 / aq=1:0.70
Язык : English
Default : Да
Forced : Нет

Аудио #1
Идентификатор : 2
Формат : AC-3
Формат/Информация : Audio Coding 3
Расширение режима : CM (complete main)
Параметр Endianness формата : Big
Идентификатор кодека : A_AC3
Продолжительность : 1 ч. 28 м.
Вид битрейта : Постоянный
Битрейт : 640 Кбит/сек
Каналы : 6 каналов
Расположение каналов : Front: L C R, Side: L R, LFE
Частота : 48,0 КГц
Битовая глубина : 16 бит
Метод сжатия : С потерями
Размер потока : 405 Мбайт (5%)
Заголовок : dub
Язык : Russian
Default : Да
Forced : Нет

Аудио #2
Идентификатор : 3
Формат : AC-3
Формат/Информация : Audio Coding 3
Расширение режима : CM (complete main)
Параметр Endianness формата : Big
Идентификатор кодека : A_AC3
Продолжительность : 1 ч. 28 м.
Вид битрейта : Постоянный
Битрейт : 448 Кбит/сек
Каналы : 6 каналов
Расположение каналов : Front: L C R, Side: L R, LFE
Частота : 48,0 КГц
Битовая глубина : 16 бит
Метод сжатия : С потерями
Размер потока : 283 Мбайт (3%)
Заголовок : Гаврилов (ранний)
Язык : Russian
Default : Нет
Forced : Нет

Аудио #3
Идентификатор : 4
Формат : AC-3
Формат/Информация : Audio Coding 3
Расширение режима : CM (complete main)
Параметр Endianness формата : Big
Идентификатор кодека : A_AC3
Продолжительность : 1 ч. 28 м.
Вид битрейта : Постоянный
Битрейт : 448 Кбит/сек
Каналы : 6 каналов
Расположение каналов : Front: L C R, Side: L R, LFE
Частота : 48,0 КГц
Битовая глубина : 16 бит
Метод сжатия : С потерями
Размер потока : 283 Мбайт (3%)
Заголовок : Живов
Язык : Russian
Default : Нет
Forced : Нет

Аудио #4
Идентификатор : 5
Формат : AC-3
Формат/Информация : Audio Coding 3
Расширение режима : CM (complete main)
Параметр Endianness формата : Big
Идентификатор кодека : A_AC3
Продолжительность : 1 ч. 28 м.
Вид битрейта : Постоянный
Битрейт : 640 Кбит/сек
Каналы : 6 каналов
Расположение каналов : Front: L C R, Side: L R, LFE
Частота : 48,0 КГц
Битовая глубина : 16 бит
Метод сжатия : С потерями
Размер потока : 405 Мбайт (5%)
Заголовок : eng
Язык : English
Default : Нет
Forced : Нет

Текст #1
Идентификатор : 6
Формат : UTF-8
Идентификатор кодека : S_TEXT/UTF8
Идентификатор кодека/Информация : UTF-8 Plain Text
Заголовок : rus
Язык : Russian
Default : Нет
Forced : Нет

Текст #2
Идентификатор : 7
Формат : UTF-8
Идентификатор кодека : S_TEXT/UTF8
Идентификатор кодека/Информация : UTF-8 Plain Text
Заголовок : eng
Язык : English
Default : Нет
Forced : Нет

Меню
00:00:00.000 : :Chapter 01
00:04:40.071 : :Chapter 02
00:08:10.406 : :Chapter 03
00:11:28.979 : :Chapter 04
00:14:09.557 : :Chapter 05
00:17:51.028 : :Chapter 06
00:22:54.748 : :Chapter 07
00:25:36.117 : :Chapter 08
00:30:24.197 : :Chapter 09
00:35:52.149 : :Chapter 10
00:40:14.078 : :Chapter 11
00:41:14.430 : :Chapter 12
00:44:16.945 : :Chapter 13
00:48:20.564 : :Chapter 14
00:50:07.212 : :Chapter 15
00:53:14.774 : :Chapter 16
00:57:50.842 : :Chapter 17
01:00:56.569 : :Chapter 18
01:02:32.331 : :Chapter 19
01:08:49.625 : :Chapter 20
01:12:41.023 : :Chapter 21
01:16:42.306 : :Chapter 22
01:20:45.131 : :Chapter 23
01:23:23.873 : :Chapter 24
pb.wtf



Скачать Король Лев через торрент http://2.firepic.org/2/images/2013-12/08/mfhr7gwnzf67.png Скачать, смотреть онлайн Король Лев бесплантно в хорошем качестве Описание: У величественного Короля-Льва Муфасы рождается наследник по имени Симба. Уже в детстве любознательный малыш становится жертвой ... 9.9 10 22
Info! Золотая раздача, скачанное не засчитывается.
Торрент: Зарегистрирован [2014-07-04 14:44] · скачан: 786 раз
Статус: √ проверено
Размер: 7.94 GB
Как cкачать? Как скачать Король Лев через торрент | UTorrent

28-11-2019 20:33  

Отключить всю рекламу на сайте

    Дорогой пользователь! Огромная просьба, поблагодарите релизера, оцените раздачу и оставьте свои комментарий, если Вы скачали Король Лев через торрент бесплатно!
    Комментировать посты могут только пользователи прошедшие не сложную регистрацию
    Показать сообщения:    

    Король Лев через торрент
    Скачать бесплатно Король Лев
    Король Лев скачать торрент
    Король Лев смотреть онлайн
    Cкачать фильм Король Лев бесплатно
    Король Лев скачать торрент в хорошем качестве
    Король Лев смотреть онлайн бесплатно в хорошем качестве


    Вы не можете начинать темы
    Вы не можете отвечать на сообщения
    Вы не можете редактировать свои сообщения
    Вы не можете удалять свои сообщения
    Вы не можете голосовать в опросах
    Вы не можете прикреплять файлы к сообщениям
    Вы можете скачивать файлы