Ссылка на приватное зеркало нашего сайта всего за 1$. Внимание количество ограничено!!!

2 сезон

iTunes

1 сезон

1

2 сезон

2 сезон

iTunes

1 сезон

RePack

30

Ultimate

ВАЖНО

ИГРА 18+

pack

RePack

MK11
pack

Забери бонус

RePack

jed

!!Акция!!

Alien_Rage

RePack

fifa19

RePack

Assassins Creed: Odyssey

RePack

NEED FOR SPEED™ PAYBACK

4 сезон

9 сезон

Бесстыжие 9 сезон

Все сериалы

все сериалы на PB.wtf

RePack

FAR CRY 5
  

Новые Мстители / Ultimate Avengers (Курт Геда, Стивен Е. Гордон, Боб Ричардсон) [2006 г., фантастика, боевик, приключения, DVDRip, Профессиональный многоголосый] pb.wtf

Новые Мстители через торрент pb.wtf

Размер: 1.46 GB | Добавлен: 6 лет 4 мес. назад | Торрент скачан:110 раз
Скачать  

09-07-2014 11:53 Новые Мстители Скачать торрент  

Новые Мстители / Ultimate Avengers
Год выпуска: 2006
Страна: США
Жанр: фантастика, боевик, приключения
Продолжительность: 01:11:00
Перевод: Профессиональный многоголосый
Субтитры: отдельный файл (русские)

Режиссер: Курт Геда, Стивен Е. Гордон, Боб Ричардсон
Продюссер: Боб Ричардсон, Ави Арад, Крэйг Кайл
Сценарий: Брайан Хитч, Грег Джонсон, Бойд Керклэнд

Бюджет: $4 583 724
Премьера в мире: 21 февраля 2006




В ролях: Джастин Гросс, Нэн МакНамара, Андре Уэр, Оливия д’Або, Фред Татаскьор, Дэвид Боат

Описание: В конце Второй мировой войны молодой военный по имени Стив Роджерс стал частью эксперимента, благодаря которому США надеялись подавить последние очаги сопротивления нацистов на втором фронте. Результатом эксперимента стал сверхчеловек, «Капитан Америка», оставшийся Стивом Роджерсом лишь в повседневной жизни. Но на первом же задании, атакуя секретный бункер фашистов, Роджерс лицом к лицу сталкивается с таинственным генералом Кляйзером — неуязвимым мутантом, вставшим во главе отряда чудовищ. Ценой собственной жизни Роджерсу удается обезвредить Кляйзера, но сам он бесследно исчезает, и его считают погибшим. Спустя 60 лет научный отдел Пентагона, проводя исследования во льдах Антарктики, случайно находит человека, вмерзшего в огромную льдину. Вскоре выясняется, что этот человек не кто иной, как Стив Роджерс. Сверхчеловеческие способности помогли ему выжить, и теперь «Капитан Америка» должен возглавить целый отряд супергероев, чтобы противостоять генералу Кляйзеру, который успел набраться сил и теперь стремится захватить одну из центральных военных баз.

Качество: DVDRip
Формат: AVI
Видео кодек: XviD
Аудио кодек: AC3
Видео: MPEG4, XviD, 720x400 (16:9), 23.976 fps, 2 280 Kbps (0.330 bit/pixel)
Аудио#1: AC-3, 48.0 KHz, 2 ch, 192 Kbps, CBR|MVO|
Аудио#2: AC-3, 48.0 KHz, 6 ch, 448 Kbps, CBR|ENG|
скриншот   скриншот   скриншот  

Общее
Полное имя : \\Rt-n14u\elements\Download2\Complete\Ultimate_Avengers\Ultimate_Avengers.avi
Формат : AVI
Формат/Информация : Audio Video Interleave
Размер файла : 1,46 Гбайт
Продолжительность : 1 ч. 11 м.
Общий поток : 2934 Кбит/сек
Программа кодирования : VirtualDubMod 1.5.10.2 (build 2540/release)
Библиотека кодирования : VirtualDubMod build 2540/release

Видео
Идентификатор : 0
Формат : MPEG-4 Visual
Профиль формата : Advanced Simple@L5
Параметр BVOP формата : 1
Параметр QPel формата : Нет
Параметр GMC формата : Без точки перехода
Параметр матрицы формата : Выборочная
Идентификатор кодека : XVID
Идентификатор кодека/Подсказка : XviD
Продолжительность : 1 ч. 11 м.
Битрейт : 2280 Кбит/сек
Ширина : 720 пикселей
Высота : 400 пикселей
Соотношение сторон : 16:9
Частота кадров : 23,976 кадра/сек
Цветовое пространство : YUV
Субдискретизация насыщенности : 4:2:0
Битовая глубина : 8 бит
Тип развёртки : Прогрессивная
Метод сжатия : С потерями
Бит/(Пиксели*Кадры) : 0.330
Размер потока : 1,14 Гбайт (78%)
Библиотека кодирования : XviD 63

Аудио #1
Идентификатор : 1
Формат : AC-3
Формат/Информация : Audio Coding 3
Расширение режима : CM (complete main)
Параметр Endianness формата : Big
Идентификатор кодека : 2000
Продолжительность : 1 ч. 11 м.
Вид битрейта : Постоянный
Битрейт : 192 Кбит/сек
Каналы : 2 канала
Расположение каналов : Front: L R
Частота : 48,0 КГц
Битовая глубина : 16 бит
Метод сжатия : С потерями
Размер потока : 98,0 Мбайт (7%)
Выравнивание : Разделение по промежуткам
Продолжительность промежутка : 42 мс. (1,00 видеокадр)
Время предзагрузки промежутка : 500 мс.

Аудио #2
Идентификатор : 2
Формат : AC-3
Формат/Информация : Audio Coding 3
Расширение режима : CM (complete main)
Параметр Endianness формата : Big
Идентификатор кодека : 2000
Продолжительность : 1 ч. 11 м.
Вид битрейта : Постоянный
Битрейт : 448 Кбит/сек
Каналы : 6 каналов
Расположение каналов : Front: L C R, Side: L R, LFE
Частота : 48,0 КГц
Битовая глубина : 16 бит
Метод сжатия : С потерями
Размер потока : 229 Мбайт (15%)
Выравнивание : Разделение по промежуткам
Продолжительность промежутка : 42 мс. (1,00 видеокадр)
Время предзагрузки промежутка : 500 мс.

Общее
Полное имя : \\Rt-n14u\elements\Download2\Complete\Ultimate_Avengers\Ultimate_Avengers.srt
Формат : SubRip
Размер файла : 70,2 Кбайт

Текст
Формат : SubRip
Метод сжатия : Без потерь

pb.wtf



Скачать Новые Мстители через торрент http://pic.kartinco.top/images/6/8ou3u.jpg Скачать фильм Новые Мстители через торрент бесплантно в хорошем качестве Описание: В конце Второй мировой войны молодой военный по имени Стив Роджерс стал частью эксперимента, благодаря которому США надеялись ... 9 10 11
Info! Золотая раздача, скачанное не засчитывается.
Торрент: Зарегистрирован [2014-07-09 11:53] · скачан: 110 раз
Статус: √ проверено
Размер: 1.46 GB
Как cкачать? Как скачать Новые Мстители через торрент | qTorrent

% Раздел Тема Автор DL S | L
Иностранные мультфильмы [ 1.46 GB ] Новые Мстители 2 / Ultimate Avengers 2 [2006 DVDRip многоголосый] Тёмыч96 Скачать
1 | 0


Последний раз редактировалось: Тёмыч96 (2014-07-10 16:01), всего редактировалось 1 раз

28-11-2019 20:33  

Отключить всю рекламу на сайте

09-07-2014 12:42 Новые Мстители Скачать торрент  

Тёмыч96 писал(а):

[qpost=undefined]Субтитры: присутствуют

Цитата:

8. Субтитры
8.1 Если имеются. Следует указать язык и вид субтитров: вшитые или отдельный файл.
8.2 Если их нет. Указываем Отсутствуют.

pb.wtf



09-07-2014 15:04 Новые Мстители Скачать торрент  

запасаемся терпением:)pb.wtf



    Дорогой пользователь! Огромная просьба, поблагодарите релизера, оцените раздачу и оставьте свои комментарий, если Вы скачали Новые Мстители через торрент бесплатно! Внесите свою лепту в развитие PiratBit!
    Комментировать посты могут только пользователи прошедшие не сложную регистрацию
    Показать сообщения:    

    Новые Мстители через торрент
    Скачать бесплатно Новые Мстители
    Новые Мстители скачать торрент
    Новые Мстители смотреть онлайн
    Cкачать фильм Новые Мстители бесплатно
    Новые Мстители скачать торрент в хорошем качестве
    Новые Мстители смотреть онлайн бесплатно в хорошем качестве


    Вы не можете начинать темы
    Вы не можете отвечать на сообщения
    Вы не можете редактировать свои сообщения
    Вы не можете удалять свои сообщения
    Вы не можете голосовать в опросах
    Вы не можете прикреплять файлы к сообщениям
    Вы можете скачивать файлы