Ссылка на приватное зеркало нашего сайта всего за 1$. Внимание количество ограничено!!!

2 сезон

iTunes

1 сезон

1

2 сезон

2 сезон

iTunes

1 сезон

RePack

30

Новинка

ВАЖНО

ИГРА 18+

pack

RePack

MK11
pack

Забери бонус

RePack

jed

!!Акция!!

Alien_Rage

RePack

fifa19

RePack

Assassins Creed: Odyssey

RePack

NEED FOR SPEED™ PAYBACK

4 сезон

9 сезон

Бесстыжие 9 сезон

Все сериалы

все сериалы на PB.wtf

RePack

FAR CRY 5
  

Операция «Мертвый снег» 2 / Død Snø 2 (Томми Виркола) [2014, ужасы, BDRip 1080p, MVO [Лицензия] от R.G. HD-Films pb.wtf

Операция «Мертвый снег» 2 через торрент pb.wtf

Размер: 7.45 GB | Добавлен: 6 лет 3 мес. назад | Торрент скачан:305 раз
Скачать  

09-08-2014 13:30 Операция «Мертвый снег» 2 Скачать торрент  

Операция «Мертвый снег» 2 / Død Snø 2


Год выпуска: 2014
Страна: Норвегия, Исландия
Жанр:ужасы, боевик, комедия
Продолжительность:01:40:41
Перевод:Профессиональный многоголосый [Лицензия]
Режиссер:Томми Виркола

  • В ролях:

    Вегар Хоел (Martin), Орхан Гамст (Herzog), Мартин Старр (Daniel), Жослин ДеБоэр (Monica), Ингрид Хаас (Blake), Стиг Фроде Хенриксен (Glenn Kenneth), Кристиан Фидженшоу (Eldre Mann), Амрита Ачария (Reidun), Дерек Мирс (Stavarin), Кристоффер Йонер (Sidekick Zombie), Халлвард Холмен (Gunga), Бьярте Тьёстейм (Priest)

  • Описание:
    После встречи в горах с нацистами-зомби лишь Мартину удалось добраться до цивилизации, в то время как все его приятели погибли. Однако парень забыл о маленьком подарке, который он получил от своей возлюбленной Ханны, - золотой монете, которую та нашла в старом доме. Эта монета - часть клада, который подчиненные штандартенфюрера Герцога собирали для своего фюрера. Но даже после смерти немцы не намерены никому отдавать свои сокровища...

  • Мировая премьера:19 января 2014


    Качество: BDRip 1080p
    Формат:MKV
    Видео кодек: AVC
    Аудио кодек:AC3
    Видео: AVC, 1920x800 (2.40:1), 9250 kbps, 24 fps, 0,251 bpp
    Аудио №1: русский / AC3 / 5.1 / 48 kHz / 448 kbps / 16 bit || [MVO]
    Аудио №2: русский / AC3 / 5.1 / 48 kHz / 448 kbps / 16 bit || [RussianGuy27]
    Аудио №3: русский / AC3 / 5.1 / 48 kHz / 448 kbps / 16 bit || [DeadSno & den904]


    Код:

    General
    Unique ID                                : 240032707771422870737437252957395998702 (0xB4949E3229D774E3B1398E3BDB37D7EE)
    Complete name                            : D:\Торенты\Рипы\Операция «Мертвый снег» 2.2014.BDRip 1080p Release for Piratbit.net_R.G. HD-Films.mkv
    Format                                   : Matroska
    Format version                           : Version 4 / Version 2
    File size                                : 7.45 GiB
    Duration                                 : 1h 40mn
    Overall bit rate                         : 10.6 Mbps
    Movie name                               :  Release for Piratbit.net_R.G. HD-Films
    Encoded date                             : UTC 2014-08-09 13:07:23
    Writing application                      : mkvmerge v6.7.0 ('Back to the Ground') 64bit built on Jan  8 2014 15:10:52
    Writing library                          : libebml v1.3.0 + libmatroska v1.4.1
    Attachment                               : Yes

    Video
    ID                                       : 1
    Format                                   : AVC
    Format/Info                              : Advanced Video Codec
    Format profile                           : High@L4.1
    Format settings, CABAC                   : Yes
    Format settings, ReFrames                : 8 frames
    Codec ID                                 : V_MPEG4/ISO/AVC
    Duration                                 : 1h 40mn
    Bit rate                                 : 9 250 Kbps
    Width                                    : 1 920 pixels
    Height                                   : 800 pixels
    Display aspect ratio                     : 2.40:1
    Frame rate                               : 24.000 fps
    Color space                              : YUV
    Chroma subsampling                       : 4:2:0
    Bit depth                                : 8 bits
    Scan type                                : Progressive
    Bits/(Pixel*Frame)                       : 0.251
    Stream size                              : 6.36 GiB (85%)
    Title                                    : Release for Piratbit.net_R.G. HD-Films
    Writing library                          : x264 core 130 r2273 b3065e6
    Encoding settings                        : cabac=1 / ref=8 / deblock=1:-3:-3 / analyse=0x3:0x133 / me=umh / subme=11 / psy=1 / psy_rd=1.00:0.10 / mixed_ref=1 / me_range=32 / chroma_me=1 / trellis=2 / 8x8dct=1 / cqm=0 / deadzone=21,11 / fast_pskip=0 / chroma_qp_offset=-3 / threads=6 / lookahead_threads=1 / sliced_threads=0 / slices=3 / nr=0 / decimate=1 / interlaced=0 / bluray_compat=0 / constrained_intra=0 / bframes=4 / b_pyramid=2 / b_adapt=2 / b_bias=0 / direct=3 / weightb=1 / open_gop=0 / weightp=2 / keyint=240 / keyint_min=23 / scenecut=40 / intra_refresh=0 / rc_lookahead=60 / rc=2pass / mbtree=1 / bitrate=9250 / ratetol=1.0 / qcomp=0.65 / qpmin=0 / qpmax=69 / qpstep=4 / cplxblur=20.0 / qblur=0.5 / vbv_maxrate=40000 / vbv_bufsize=30000 / nal_hrd=none / ip_ratio=1.40 / aq=1:1.00
    Language                                 : Russian
    Default                                  : Yes
    Forced                                   : No

    Audio #1
    ID                                       : 2
    Format                                   : AC-3
    Format/Info                              : Audio Coding 3
    Mode extension                           : CM (complete main)
    Codec ID                                 : A_AC3
    Duration                                 : 1h 40mn
    Bit rate mode                            : Constant
    Bit rate                                 : 448 Kbps
    Channel(s)                               : 6 channels
    Channel positions                        : Front: L C R, Side: L R, LFE
    Sampling rate                            : 48.0 KHz
    Bit depth                                : 16 bits
    Compression mode                         : Lossy
    Stream size                              : 323 MiB (4%)
    Title                                    : MVO лицензия
    Language                                 : Russian
    Default                                  : Yes
    Forced                                   : Yes

    Audio #2
    ID                                       : 3
    Format                                   : AC-3
    Format/Info                              : Audio Coding 3
    Mode extension                           : CM (complete main)
    Codec ID                                 : A_AC3
    Duration                                 : 1h 40mn
    Bit rate mode                            : Constant
    Bit rate                                 : 448 Kbps
    Channel(s)                               : 6 channels
    Channel positions                        : Front: L C R, Side: L R, LFE
    Sampling rate                            : 48.0 KHz
    Bit depth                                : 16 bits
    Compression mode                         : Lossy
    Stream size                              : 323 MiB (4%)
    Title                                    : DVO DeadSno & den904
    Language                                 : Russian
    Default                                  : No
    Forced                                   : No

    Audio #3
    ID                                       : 4
    Format                                   : AC-3
    Format/Info                              : Audio Coding 3
    Mode extension                           : CM (complete main)
    Codec ID                                 : A_AC3
    Duration                                 : 1h 40mn
    Bit rate mode                            : Constant
    Bit rate                                 : 448 Kbps
    Channel(s)                               : 6 channels
    Channel positions                        : Front: L C R, Side: L R, LFE
    Sampling rate                            : 48.0 KHz
    Bit depth                                : 16 bits
    Compression mode                         : Lossy
    Stream size                              : 323 MiB (4%)
    Title                                    : VO  [RussianGuy27]
    Language                                 : Russian
    Default                                  : No
    Forced                                   : No

    Menu
    00:00:00.000                             : en:
    00:12:19.375                             : en:
    00:19:38.666                             : en:
    00:30:39.250                             : en:
    00:39:56.583                             : en:
    00:50:01.208                             : en:
    01:01:39.708                             : en:
    01:09:42.083                             : en:
    01:18:11.375                             : en:
    01:23:02.500                             : en:
    01:29:31.416                             : en:
    01:36:58.208                             : en:

    Скриншоты:

    Каталог Новинок (Фильмы-трейлеры, Игры, Сериалы, Мультфильмы)

    Релиз подготовлен специально для Piratbit.net. by Raven за видеоряд спасибо ElectRoStyLe
    pb.wtf



  • Скачать Операция «Мертвый снег» 2 через торрент http://pic.kartinco.top/images/6/stazu.jpg Скачать фильм Операция «Мертвый снег» 2 через торрент бесплантно в хорошем качестве Описание:После встречи в горах с нацистами-зомби лишь Мартину удалось добраться до цивилизации, в то время как все его приятели погибли. ... 9.6 10 15
    Info! Золотая раздача, скачанное не засчитывается.
    Торрент: Зарегистрирован [2014-08-10 15:31] · скачан: 305 раз
    Статус: √ проверено
    Размер: 7.45 GB
    Как cкачать? Как скачать Операция «Мертвый снег» 2 через торрент | qTorrent



    Последний раз редактировалось: Ворон (2014-08-10 15:31), всего редактировалось 1 раз

    28-11-2019 20:33  

    Отключить всю рекламу на сайте

    09-08-2014 13:46 Операция «Мертвый снег» 2 Скачать торрент  

    дубляж, будет?pb.wtf



    09-08-2014 13:47 Операция «Мертвый снег» 2 Скачать торрент  

    Raven писал(а):

    [qpost=undefined][Лицензия]

    pb.wtf



    09-08-2014 19:03 Операция «Мертвый снег» 2 Скачать торрент  

    полюбе 3 часть будет)pb.wtf



    10-08-2014 09:35 Операция «Мертвый снег» 2 Скачать торрент  

    кровавое рубилово :-)pb.wtf



    10-08-2014 15:34 Операция «Мертвый снег» 2 Скачать торрент  

    edapush писал(а):

    [qpost=undefined]кровавое рубилово

    +1, туповат местами но смотреть можно) да и первую часть смотреть не обязательно, в начале есть предыстория первой части..убил момент когда кишки пустили на шланг для перекачки бензина в танк sarcasticpb.wtf



    10-08-2014 16:36 Операция «Мертвый снег» 2 Скачать торрент  

    Операция "Желтый снег"pb.wtf



    15-08-2014 13:15 Операция «Мертвый снег» 2 Скачать торрент  

    спасибо поржал, особенно в конце roflpb.wtf



    25-03-2015 03:27 Операция «Мертвый снег» 2 Скачать торрент  

    фильм супер, для любителей черного юмора. фильм качественный, да, туповат временами, но очень даже отлично, 9/10pb.wtf



    08-01-2016 10:41 Операция «Мертвый снег» 2 Скачать торрент  

    Суровый трэшак, особенно в конце, хотя эффекты не плохие, 6/10pb.wtf



    08-02-2016 16:38 Операция «Мертвый снег» 2 Скачать торрент  

    Иногда хочется трэшака. Планета страха, например, вполне удовлетворяет запросам. Надеюсь и эта картина принесет положительные эмоции.pb.wtf



      Дорогой пользователь! Огромная просьба, поблагодарите релизера, оцените раздачу и оставьте свои комментарий, если Вы скачали Операция «Мертвый снег» 2 через торрент бесплатно! Внесите свою лепту в развитие PiratBit!
      Комментировать посты могут только пользователи прошедшие не сложную регистрацию
      Показать сообщения:    

      Операция «Мертвый снег» 2 через торрент
      Скачать бесплатно Операция «Мертвый снег» 2
      Операция «Мертвый снег» 2 скачать торрент
      Операция «Мертвый снег» 2 смотреть онлайн
      Cкачать фильм Операция «Мертвый снег» 2 бесплатно
      Операция «Мертвый снег» 2 скачать торрент в хорошем качестве
      Операция «Мертвый снег» 2 смотреть онлайн бесплатно в хорошем качестве


      Вы не можете начинать темы
      Вы не можете отвечать на сообщения
      Вы не можете редактировать свои сообщения
      Вы не можете удалять свои сообщения
      Вы не можете голосовать в опросах
      Вы не можете прикреплять файлы к сообщениям
      Вы можете скачивать файлы