Всегда рабочее зеркало без VPN и Proxy просто перед .vidak.icu напиши любое слово или цифру, Пример http://bab2.vidak.icu

MVO

2 сезон

1 сезон

1

1 сезон

iTunes

2 сезон

13

1 сезон

Deluxe

pack

Рекомендуем

Пиратка

30

ВАЖНО

RePack

MK11

RePack

jed

RePack

fifa19

RePack

RDR2

RePack

NEED FOR SPEED™ PAYBACK

Кинопоиск HD

6 сезон

 Острые козырьки 6 сезон

Все сериалы

все сериалы на PB.wtf

RePack

FAR CRY 5

Anonymous, нам критически не хватает 5601 руб. на оплату серверов и переферии за Апрель, помоги нам пожалуйста, вся надежда только на тебя. В благодарность мы отключим тебе всю рекламу на сайте!

×
  
Magnet ссылка

Дон Жуан де Марко / Don Juan DeMarco (Джереми Левин) [1995, драма, мелодрама, комедия, HDRip] MVO (Союз Видео) + AVO (Ю.Сербин) + AVO (А.Гаврилов) pb.wtf

Дон Жуан де Марко через торрент pb.wtf

Размер: 2.06 GB | Добавлен: 7 лет 8 мес. назад | Торрент скачан:11 раз
Смотреть онлайн Дон Жуан де Марко | Скачать    Ребята, помогите собрать деньги на оплату серверов!!!

30-08-2014 09:45 Дон Жуан де Марко Скачать торрент  

Дон Жуан де Марко / Don Juan DeMarco
«История о молодом человеке,убеждёном,что он - величайший любовник на земле...и о людях,пытающихся излечить его от этого»


Год выпуска: 1995
Страна: США
Жанр: драма, мелодрама, комедия
Продолжительность: 01:37:10
Перевод: Профессиональный (двухголосый закадровый)

Режиссер: Джереми Левин
Сценарий: Лорд Байрон, Джереми Левин
Продюсер: Френсис Форд Коппола, Фред Фучс, Майкл Де Лука
Оператор: Ральф Д. Боуд
Композитор : Майкл Кэмен, Роберт Джон Ланж
Художник: Шэрон Сеймур, Джефф Нипп, Керстен Эверберг
Монтаж: Энтони Гиббс

В ролях: Марлон Брандо / Marlon Brando (Dr. Jack Mickler), Джонни Депп / Johnny Depp (Don Juan), Фэй Данауэй / Faye Dunaway (Marilyn Mickler), Жеральдин Пайя / Géraldine Pailhas (Doña Ana), Боб Диши / Bob Dishy (Dr. Paul Showalter), Рэйчел Тикотин / Rachel Ticotin (Doña Inez), Талиса Сото / Talisa Soto (Doña Julia), Марита Герати / Marita Geraghty (Woman in Restaurant)


Описание: Романтическая мелодрама о взаимоотношениях стареющего врача-психиатра и его молодого пациента, который искренне считает себя Дон Жуаном. Дружба, возникшая между героями фильма помогает вернуть врачу утраченную молодость духа, свежесть чувств и способность мечтать. Помешательство его подопечного окажется не чем иным, как исключительным отношением к женщинам, удивительной способностью молодого человека доставить каждой своей избраннице несравнимое ни с чем удовольствие любви…

СЭМПЛ

Бюджет: $25 000 000
Сборы в США: $22 150 451
Сборы в мире: $68 792 531
Зрители: США 5.09 млн , Германия 1.6 млн , Испания 761.2 тыс.
Премьера (мир): 7 апреля 1995
Релиз на DVD: 30 ноября 2006, «Союз-Видео»
Рейтинг MPAA: Детям до 13 лет просмотр не желателен


Качество: HDRip
Формат: AVI
Видео кодек: XviD
Аудио кодек: AC3
Видео: 720x400 (16:9), 23.976 fps, XviD, 1 985 Kbps
Аудио: Аудио #1: AC3, 448 Kbps, 48.0 KHz, 6 ch Профессиональный (двухголосый, закадровый) Союз Видео
Аудио #2: AC3, 384 Kbps, 48.0 KHz, 6 ch Авторский (одноголосый закадровый) Ю. Сербин
Аудио #3: AC3, 192 Kbps, 48.0 KHz, 2 ch Авторский (одноголосый закадровый) А. Гаврилов
· Джонни Депп в фильме говорит с испанским акцентом, который он изучал по сериалу 1978 г. «Остров фантазий» с Рикардо Монтальбаном в главной роли.

· Музыка к фильму записывалась в Англии, в Лондонской студии «Whitfield Street Studio» при участии London Metropolitan Orchestra.

· Во время съемок интимных сцен в фильме «Дон Жуан де Марко» чересчур татуированного Деппа пришлось иногда заменять дублером (фрагмент с дамой из ресторана).

· Костюмы для Джонни Деппа были разработаны дизайнером Кеннет Смайли (Kenneth R. Smiley)

· Фрагменты съемок на острове Эрос фильма проходили на Гавайях (Hawaii).

· Джонни Депп согласился сниматься в этом фильме только при условии, что на роль психиатра будет приглашен его друг Марлон Брандо.

· Когда снимали эпизод разговора Дон-Жуана де Марко и доктора Миклера за столом о несогласованностях в рассказах первого о самом себе, все реплики Дон-Жуана были переписаны по новой непосредственно перед самым началом съемок. Таким образом, у Джонни Деппа совершенно не было времени не только на то, чтобы как-то отрепетировать свои реплики, но и на то, чтобы элементарно запомнить свой текст. Положение спас друг Деппа Марлон Брандо. Он поговорил с режиссером и оператором, чтобы узнать, как будет сниматься эпизод, а затем вырезал реплики Джонни из сценария и наклеил их на чашку кофе, которую взял в руку. После этого в течение всей съемки эпизода великий Брандо ухитрился держать в руке чашку кофе так, чтобы наклеенные на нее вырезки были хорошо видны Джонни Деппу, но при этом ни разу не попали в «поле зрения» камеры!

· Появление в этом фильме стало первой и единственной ролью в кино молодой и многообещающей американской певицы Селены (1971 — 1995), убитой 31 марта 1995 года собственной подругой Йоландой Сальдивар, президентом ее собственного фан-клуба. Фильм вышел в прокат спустя всего неделю после гибели певицы.

Код:

General
Complete name                    : Don.Juan.DeMarco.1995.HDRip.avi
Format                           : AVI
Format/Info                      : Audio Video Interleave
Format profile                   : OpenDML
File size                        : 2.06 GiB
Duration                         : 1h 37mn
Overall bit rate                 : 3 033 Kbps
Writing application              : VirtualDubModRus 1.5.10.2 (build 2542/release)
Writing library                  : VirtualDubMod build 2542/release

Video
ID                               : 0
Format                           : MPEG-4 Visual
Format profile                   : Advanced Simple@L5
Format settings, BVOP            : Yes
Format settings, QPel            : No
Format settings, GMC             : No warppoints
Format settings, Matrix          : Default (H.263)
Muxing mode                      : Packed bitstream
Codec ID                         : XVID
Codec ID/Hint                    : XviD
Duration                         : 1h 37mn
Bit rate                         : 1 985 Kbps
Width                            : 720 pixels
Height                           : 400 pixels
Display aspect ratio             : 16:9
Frame rate                       : 23.976 fps
Color space                      : YUV
Chroma subsampling               : 4:2:0
Bit depth                        : 8 bits
Scan type                        : Progressive
Bits/(Pixel*Frame)               : 0.287
Stream size                      : 1.35 GiB (65%)
Writing library                  : XviD 64

Audio #1
ID                               : 1
Format                           : AC-3
Format/Info                      : Audio Coding 3
Mode extension                   : CM (complete main)
Codec ID                         : 2000
Duration                         : 1h 37mn
Bit rate mode                    : Constant
Bit rate                         : 448 Kbps
Channel(s)                       : 6 channels
Channel positions                : Front: L C R, Side: L R, LFE
Sampling rate                    : 48.0 KHz
Bit depth                        : 16 bits
Stream size                      : 311 MiB (15%)
Alignment                        : Split accross interleaves
Interleave, duration             : 42 ms (1.00 video frame)
Interleave, preload duration     : 500 ms

Audio #2
ID                               : 2
Format                           : AC-3
Format/Info                      : Audio Coding 3
Mode extension                   : CM (complete main)
Codec ID                         : 2000
Duration                         : 1h 37mn
Bit rate mode                    : Constant
Bit rate                         : 384 Kbps
Channel(s)                       : 6 channels
Channel positions                : Front: L C R, Side: L R, LFE
Sampling rate                    : 48.0 KHz
Bit depth                        : 16 bits
Stream size                      : 267 MiB (13%)
Alignment                        : Split accross interleaves
Interleave, duration             : 42 ms (1.00 video frame)
Interleave, preload duration     : 500 ms

Audio #3
ID                               : 3
Format                           : AC-3
Format/Info                      : Audio Coding 3
Mode extension                   : CM (complete main)
Codec ID                         : 2000
Duration                         : 1h 37mn
Bit rate mode                    : Constant
Bit rate                         : 192 Kbps
Channel(s)                       : 2 channels
Channel positions                : Front: L R
Sampling rate                    : 48.0 KHz
Bit depth                        : 16 bits
Stream size                      : 133 MiB (6%)
Alignment                        : Split accross interleaves
Interleave, duration             : 42 ms (1.00 video frame)
Interleave, preload duration     : 500 ms

pb.wtf



Скачать Дон Жуан де Марко через торрент http://i66.fastpic.ru/big/2014/0830/7f/c10b0b8073338f634a9c906e827ad77f.jpg Скачать, смотреть онлайн Дон Жуан де Марко бесплантно в хорошем качестве Описание: Романтическая мелодрама о взаимоотношениях стареющего врача-психиатра и его молодого пациента, который искренне считает себя Дон ... 10 10 2
Info! Золотая раздача, скачанное не засчитывается.
Торрент: Зарегистрирован [2014-08-30 09:45] · скачан: 11 раз
Статус: √ проверено
Размер: 2.06 GB
Как cкачать? Как скачать Дон Жуан де Марко через торрент | UTorrent

% Раздел Тема Автор DL S | L
Фильмы до 2000 г. [ 1.46 GB ] Дон Жуан де Марко / Don Juan DeMarco [1995 двухголосый] кэп Скачать
1 | 0
Фильмы до 2000 г. [ 1.46 GB ] Дон Жуан де Марко / Don Juan DeMarco [1995 DVDRip] vadfro Скачать
1 | 0

28-11-2019 20:33  

Отключить всю рекламу на сайте

    Дорогой пользователь! Огромная просьба, поблагодарите релизера, оцените раздачу и оставьте свои комментарий, если Вы скачали Дон Жуан де Марко через торрент бесплатно!
    Комментировать посты могут только пользователи прошедшие не сложную регистрацию
    Показать сообщения:    

    Дон Жуан де Марко через торрент
    Скачать бесплатно Дон Жуан де Марко
    Дон Жуан де Марко скачать торрент
    Дон Жуан де Марко смотреть онлайн
    Cкачать фильм Дон Жуан де Марко бесплатно
    Дон Жуан де Марко скачать торрент в хорошем качестве
    Дон Жуан де Марко смотреть онлайн бесплатно в хорошем качестве


    Вы не можете начинать темы
    Вы не можете отвечать на сообщения
    Вы не можете редактировать свои сообщения
    Вы не можете удалять свои сообщения
    Вы не можете голосовать в опросах
    Вы не можете прикреплять файлы к сообщениям
    Вы можете скачивать файлы