Всегда рабочее зеркало без VPN и Proxy просто перед .vidak.icu напиши любое слово или цифру, Пример http://4zvb.vidak.icu

iTunes

2 сезон

1 сезон

1

1 сезон

iTunes

2 сезон

13

1 сезон

Deluxe

pack

Рекомендуем

Пиратка

30

ВАЖНО

RePack

MK11

RePack

jed

RePack

fifa19

RePack

RDR2

RePack

NEED FOR SPEED™ PAYBACK

Кинопоиск HD

6 сезон

 Острые козырьки 6 сезон

Все сериалы

все сериалы на PB.wtf

RePack

FAR CRY 5

Anonymous, нам критически не хватает 5601 руб. на оплату серверов и переферии за Апрель, помоги нам пожалуйста, вся надежда только на тебя. В благодарность мы отключим тебе всю рекламу на сайте!

×
  
Magnet ссылка

Уличный боец: Кулак убийцы / Street Fighter: Assassin's Fist (Джои Анса / Joey Ansah) [2014, Великобритания, боевик, триллер, BDRip 1080p, Авторский (одноголосый)(А.Дольский) pb.wtf

Уличный боец: Кулак убийцы через торрент pb.wtf

Размер: 12.03 GB | Добавлен: 7 лет 8 мес. назад | Торрент скачан:201 раз
Смотреть онлайн Уличный боец: Кулак убийцы | Скачать    Ребята, помогите собрать деньги на оплату серверов!!!

06-09-2014 21:51 Уличный боец: Кулак убийцы Скачать торрент  


Уличный боец: Кулак убийцы / Street Fighter: Assassin's Fist

«If a man alters his path can he change his destiny...or only delay the inevitable?»

Год выпуска: 2014
Страна:Великобритания
Жанр:боевик, триллер, драма, приключения
Продолжительность: 02:26:20
Перевод:Авторский (одноголосый)(А.Дольский)
Субтитры: Русские, английские
Режиссер:Джои Анса / Joey Ansah
В ролях:

Семен Цолов (Ken Masters (12YO)), Акира Койеяма (Gôken (2014)), Крис Ховард (Ken Masters (2014)), Майк Мо (Ryu (2014)), Того Игава (Gôma (2014)), Марк Киллин (Mr. Masters (2014)), Харукико Яманоути (Senzô (2014)), Шоген (Young Gôken (2014)), Гаку Спэйс (Gôki (2014)), Джои Анса (Akuma (2014)), Hyunri (Sayaka (2014))
  • Описание:
    Сериал рассказывает о периоде становления бойцами Рю и Кена, когда они жили традиционной жизнью воинов в Японии. Парни и не подозревали, что являются последними людьми, познавшими древний боевой стиль, известный как «Ансацукен» (Кулак убийцы)...


    Качество:BDRip 1080p
    Формат:MKV
    Видео кодек: AVC
    Аудио кодек:AC3, DTS
    Видео: AVC, 1920x800 (2.40:1), 8111 kbps, 25 fps, 0,211 bpp
    Аудио №1: русский / AC3 / 5.1 / 48 kHz / 640 kbps / 16 bit || (А.Дольский)
    Аудио №2: русский / DTS / 5.1 / 48 kHz / 1510 kbps / 16 bit || (А.Дольский)
    Аудио №3: английский / DTS / 5.1 / 48 kHz / 1510 kbps / 16 bit
    Навигация по главам: есть

    Код:

    General
    Unique ID                                : 249496027300809044065236366868052451205 (0xBBB32FDF2106241ABA5F140033D41F85)
    Complete name                            : D:\Торенты\Street.Fighter.Assassins.Fist.2014.x264.BDRip.(1080p).ExKinoRay.mkv
    Format                                   : Matroska
    Format version                           : Version 2
    File size                                : 12.0 GiB
    Duration                                 : 2h 26mn
    Overall bit rate                         : 11.8 Mbps
    Movie name                               : Уличный боец: Кулак убийцы.2014.Rip by: ollan
    Encoded date                             : UTC 2014-09-06 06:31:11
    Writing application                      : mkvmerge v5.6.0 ('Kenya Kane') built on May 27 2012 16:44:04
    Writing library                          : libebml v1.2.3 + libmatroska v1.3.0

    Video
    ID                                       : 1
    Format                                   : AVC
    Format/Info                              : Advanced Video Codec
    Format profile                           : High@L4.1
    Format settings, CABAC                   : Yes
    Format settings, ReFrames                : 5 frames
    Codec ID                                 : V_MPEG4/ISO/AVC
    Duration                                 : 2h 26mn
    Bit rate                                 : 8 111 Kbps
    Width                                    : 1 920 pixels
    Height                                   : 800 pixels
    Display aspect ratio                     : 2.40:1
    Frame rate                               : 25.000 fps
    Color space                              : YUV
    Chroma subsampling                       : 4:2:0
    Bit depth                                : 8 bits
    Scan type                                : Progressive
    Bits/(Pixel*Frame)                       : 0.211
    Stream size                              : 8.05 GiB (67%)
    Writing library                          : x264 core 125 r2200 999b753
    Encoding settings                        : cabac=1 / ref=5 / deblock=1:-3:-3 / analyse=0x3:0x133 / me=umh / subme=11 / psy=1 / psy_rd=1.00:0.10 / mixed_ref=1 / me_range=32 / chroma_me=1 / trellis=2 / 8x8dct=1 / cqm=0 / deadzone=21,11 / fast_pskip=0 / chroma_qp_offset=-3 / threads=12 / lookahead_threads=2 / sliced_threads=0 / nr=0 / decimate=0 / interlaced=0 / bluray_compat=0 / constrained_intra=0 / bframes=9 / b_pyramid=2 / b_adapt=2 / b_bias=0 / direct=3 / weightb=1 / open_gop=0 / weightp=2 / keyint=250 / keyint_min=25 / scenecut=40 / intra_refresh=0 / rc_lookahead=40 / rc=2pass / mbtree=1 / bitrate=8111 / ratetol=1.0 / qcomp=0.60 / qpmin=0 / qpmax=69 / qpstep=4 / cplxblur=20.0 / qblur=0.5 / ip_ratio=1.40 / aq=1:1.00
    Language                                 : English
    Default                                  : Yes
    Forced                                   : No

    Audio #1
    ID                                       : 2
    Format                                   : AC-3
    Format/Info                              : Audio Coding 3
    Mode extension                           : CM (complete main)
    Codec ID                                 : A_AC3
    Duration                                 : 2h 26mn
    Bit rate mode                            : Constant
    Bit rate                                 : 640 Kbps
    Channel(s)                               : 6 channels
    Channel positions                        : Front: L C R, Side: L R, LFE
    Sampling rate                            : 48.0 KHz
    Bit depth                                : 16 bits
    Compression mode                         : Lossy
    Stream size                              : 670 MiB (5%)
    Title                                    : Авторский (А.Дольский)
    Language                                 : Russian
    Default                                  : Yes
    Forced                                   : No

    Audio #2
    ID                                       : 3
    Format                                   : DTS
    Format/Info                              : Digital Theater Systems
    Codec ID                                 : A_DTS
    Duration                                 : 2h 26mn
    Bit rate mode                            : Constant
    Bit rate                                 : 1 510 Kbps
    Channel(s)                               : 6 channels
    Channel positions                        : Front: L C R, Side: L R, LFE
    Sampling rate                            : 48.0 KHz
    Bit depth                                : 16 bits
    Compression mode                         : Lossy
    Stream size                              : 1.54 GiB (13%)
    Title                                    : Авторский (А.Дольский)
    Language                                 : Russian
    Default                                  : No
    Forced                                   : No

    Audio #3
    ID                                       : 4
    Format                                   : DTS
    Format/Info                              : Digital Theater Systems
    Codec ID                                 : A_DTS
    Duration                                 : 2h 26mn
    Bit rate mode                            : Constant
    Bit rate                                 : 1 510 Kbps
    Channel(s)                               : 6 channels
    Channel positions                        : Front: L C R, Side: L R, LFE
    Sampling rate                            : 48.0 KHz
    Bit depth                                : 16 bits
    Compression mode                         : Lossy
    Stream size                              : 1.54 GiB (13%)
    Language                                 : English
    Default                                  : No
    Forced                                   : No

    Text #1
    ID                                       : 5
    Format                                   : UTF-8
    Codec ID                                 : S_TEXT/UTF8
    Codec ID/Info                            : UTF-8 Plain Text
    Title                                    : Enigma (Only Japanese speech)
    Language                                 : Russian
    Default                                  : No
    Forced                                   : No

    Text #2
    ID                                       : 6
    Format                                   : UTF-8
    Codec ID                                 : S_TEXT/UTF8
    Codec ID/Info                            : UTF-8 Plain Text
    Title                                    : Only Japanese speech
    Language                                 : English
    Default                                  : No
    Forced                                   : No

    Text #3
    ID                                       : 7
    Format                                   : UTF-8
    Codec ID                                 : S_TEXT/UTF8
    Codec ID/Info                            : UTF-8 Plain Text
    Title                                    : Full
    Language                                 : English
    Default                                  : No
    Forced                                   : No

    Menu
    00:00:00.000                             : en:Chapter 01
    00:23:10.400                             : en:Chapter 02
    00:43:56.160                             : en:Chapter 03
    01:06:18.000                             : en:Chapter 04
    01:27:56.600                             : en:Chapter 05
    01:50:15.280                             : en:Chapter 06
    02:12:29.000                             : en:Chapter 07
    02:26:19.400                             : en:Chapter 08
    02:26:20.599                             : en:Chapter 09


    Скриншоты:

    Срочно! Нужна помощь!
    Поблагодарить релизера!
    pb.wtf



  • Скачать Уличный боец: Кулак убийцы через торрент https://pic1.kartinco.top/images/61/ordi9.jpg Скачать, смотреть онлайн Уличный боец: Кулак убийцы бесплантно в хорошем качестве Описание:Сериал рассказывает о периоде становления бойцами Рю и Кена, когда они жили традиционной жизнью воинов в Японии. Парни и не ... 10 10 9
    Info! Золотая раздача, скачанное не засчитывается.
    Торрент: Зарегистрирован [2014-09-06 21:51] · скачан: 201 раз
    Статус: √ проверено
    Размер: 12.03 GB
    Как cкачать? Как скачать Уличный боец: Кулак убийцы через торрент | UTorrent

    28-11-2019 20:33  

    Отключить всю рекламу на сайте

    09-09-2014 17:47 Уличный боец: Кулак убийцы Скачать торрент  

    редкостная хуита.pb.wtf



    09-09-2014 18:05 Уличный боец: Кулак убийцы Скачать торрент  

    СЕРИАЛ рассказывает о периоде становления...?????????pb.wtf



      Дорогой пользователь! Огромная просьба, поблагодарите релизера, оцените раздачу и оставьте свои комментарий, если Вы скачали Уличный боец: Кулак убийцы через торрент бесплатно!
      Комментировать посты могут только пользователи прошедшие не сложную регистрацию
      Показать сообщения:    

      Уличный боец: Кулак убийцы через торрент
      Скачать бесплатно Уличный боец: Кулак убийцы
      Уличный боец: Кулак убийцы скачать торрент
      Уличный боец: Кулак убийцы смотреть онлайн
      Cкачать фильм Уличный боец: Кулак убийцы бесплатно
      Уличный боец: Кулак убийцы скачать торрент в хорошем качестве
      Уличный боец: Кулак убийцы смотреть онлайн бесплатно в хорошем качестве


      Вы не можете начинать темы
      Вы не можете отвечать на сообщения
      Вы не можете редактировать свои сообщения
      Вы не можете удалять свои сообщения
      Вы не можете голосовать в опросах
      Вы не можете прикреплять файлы к сообщениям
      Вы можете скачивать файлы