Ссылка на приватное зеркало нашего сайта всего за 1$. Внимание количество ограничено!!!

2 сезон

iTunes

1 сезон

1

2 сезон

2 сезон

iTunes

1 сезон

RePack

30

Новинка

ВАЖНО

ИГРА 18+

pack

RePack

MK11
pack

Забери бонус

RePack

jed

!!Акция!!

Alien_Rage

RePack

fifa19

RePack

Assassins Creed: Odyssey

RePack

NEED FOR SPEED™ PAYBACK

4 сезон

9 сезон

Бесстыжие 9 сезон

Все сериалы

все сериалы на PB.wtf

RePack

FAR CRY 5
  

Конан-варвар / Conan the Barbarian (Джон Милиус / John Milius) [1982, США, фэнтези, боевик, приключения, BDRip 720p,Профессиональный многоголосый pb.wtf

Конан-варвар через торрент pb.wtf

Размер: 6.55 GB | Добавлен: 6 лет 2 мес. назад | Торрент скачан:53 раза
Скачать  

21-09-2014 12:19 Конан-варвар Скачать торрент  

Конан-варвар / Conan the Barbarian

Год выпуска: 1982
Страна:США
Жанр: фэнтези, боевик, приключения
Продолжительность: 02:10:31
Перевод: Профессиональный многоголосый
Субтитры: русские (Русские),
Режиссер: Джон Милиус / John Milius
В ролях:
Арнольд Шварценеггер (Conan), Джеймс Эрл Джонс (Thulsa Doom), Макс фон Сюдов (King Osric), Сэндал Бергман (Valeria), Бен Дэвидсон (Rexor), Кассандра Гава (The Witch), Джерри Лопес (Subotai), Мако (The Wizard / рассказчик), Валери Кеннессен (The Princess), Уильям Смит (Conan's Father), Луис Барбу (Red Hair), Франко Колумбу (Pictish Scout)

Описание:
В детстве Конан стал свидетелем жестокого убийства своих родителей беспощадным Тулса Думом. Его обезумевшие от запаха крови солдаты разорили и сожгли до тла родную деревню Конана. Мальчик вырастает в рабстве и превращается в обладающего неимоверной силой и мышечной массой непобедимого воина.
Поклявшись отомстить за родителей, он отправляется на поиски своего врага. Его путь полон невероятных приключений, отчаянных поединков, неожиданных встреч и опасностей.
Конан с достоинством проходит все испытания, но сможет ли он победить в последней и самой опасной битве в его жизни, битве с непобедимым Тулса Думом?
Рейтинг:


Качество: BDRip 720p
Формат: MKV
Видео кодек: AVC
Аудио кодек:DTS
Видео: AVC, 1280x544 (2.35:1), 6420 kbps, 23,976 fps, 0,385 bpp
Аудио: русский / DTS / 5.1 / 48 kHz / 755 kbps / 24 bit ||

Код:

General
Unique ID                                : 179263331217767831523886990643478944676 (0x86DCDC9BCC517BC08E189C8BD9545BA4)
Complete name                            : H:\Futuron\Кино\Conan.the.Barbarian.1982.720p.Rus.mkv
Format                                   : Matroska
Format version                           : Version 4 / Version 2
File size                                : 6.55 GiB
Duration                                 : 2h 10mn
Overall bit rate                         : 7 186 Kbps
Encoded date                             : UTC 2013-12-17 11:01:12
Writing application                      : mkvmerge v6.2.0 ('Promised Land') built on Apr 28 2013 12:22:01
Writing library                          : libebml v1.3.0 + libmatroska v1.4.0

Video
ID                                       : 1
Format                                   : AVC
Format/Info                              : Advanced Video Codec
Format profile                           : High@L4.1
Format settings, CABAC                   : Yes
Format settings, ReFrames                : 10 frames
Codec ID                                 : V_MPEG4/ISO/AVC
Duration                                 : 2h 10mn
Bit rate                                 : 6 420 Kbps
Width                                    : 1 280 pixels
Height                                   : 544 pixels
Display aspect ratio                     : 2.35:1
Frame rate                               : 23.976 fps
Color space                              : YUV
Chroma subsampling                       : 4:2:0
Bit depth                                : 8 bits
Scan type                                : Progressive
Bits/(Pixel*Frame)                       : 0.385
Stream size                              : 5.73 GiB (88%)
Title                                    : Конан-варвар / Conan the Barbarian (1982) BDRip 720p by DON
Writing library                          : x264 core 115 r2008 4c552d8
Encoding settings                        : cabac=1 / ref=10 / deblock=1:-3:-3 / analyse=0x3:0x113 / me=umh / subme=10 / psy=1 / psy_rd=0.75:0.05 / mixed_ref=1 / me_range=32 / chroma_me=1 / trellis=2 / 8x8dct=1 / cqm=0 / deadzone=21,11 / fast_pskip=0 / chroma_qp_offset=-3 / threads=12 / sliced_threads=0 / nr=0 / decimate=0 / interlaced=0 / bluray_compat=0 / constrained_intra=0 / bframes=8 / b_pyramid=2 / b_adapt=2 / b_bias=0 / direct=3 / weightb=1 / open_gop=0 / weightp=2 / keyint=250 / keyint_min=23 / scenecut=40 / intra_refresh=0 / rc_lookahead=40 / rc=2pass / mbtree=0 / bitrate=6420 / ratetol=1.0 / qcomp=0.60 / qpmin=0 / qpmax=69 / qpstep=4 / cplxblur=20.0 / qblur=0.5 / vbv_maxrate=50000 / vbv_bufsize=50000 / nal_hrd=none / ip_ratio=1.40 / pb_ratio=1.30 / aq=2:0.60
Language                                 : English
Default                                  : Yes
Forced                                   : No

Audio
ID                                       : 2
Format                                   : DTS
Format/Info                              : Digital Theater Systems
Codec ID                                 : A_DTS
Duration                                 : 2h 10mn
Bit rate mode                            : Constant
Bit rate                                 : 755 Kbps
Channel(s)                               : 6 channels
Channel positions                        : Front: L C R, Side: L R, LFE
Sampling rate                            : 48.0 KHz
Bit depth                                : 24 bits
Compression mode                         : Lossy
Stream size                              : 704 MiB (10%)
Title                                    : Многоголосый (Blu-Ray CEE) DTS 5.1 @ 768 kbps
Language                                 : Russian
Default                                  : Yes
Forced                                   : No

Text
ID                                       : 3
Format                                   : UTF-8
Codec ID                                 : S_TEXT/UTF8
Codec ID/Info                            : UTF-8 Plain Text
Title                                    : Русские
Language                                 : Russian
Default                                  : No
Forced                                   : No

pb.wtf



Скачать Конан-варвар через торрент http://i4.imageban.ru/out/2014/09/21/babcc3c7b49bd6aad59afdac4ae6bcc0.jpg Скачать фильм Конан-варвар через торрент бесплантно в хорошем качестве Описание: В детстве Конан стал свидетелем жестокого убийства своих родителей беспощадным Тулса Думом. Его обезумевшие от запаха крови ... 10 10 9
Торрент: Зарегистрирован [2014-09-21 12:19] · скачан: 53 раз
Статус: √ проверено
Размер: 6.55 GB
Как cкачать? Как скачать Конан-варвар через торрент | qTorrent

28-11-2019 20:33  

Отключить всю рекламу на сайте

    Дорогой пользователь! Огромная просьба, поблагодарите релизера, оцените раздачу и оставьте свои комментарий, если Вы скачали Конан-варвар через торрент бесплатно! Внесите свою лепту в развитие PiratBit!
    Комментировать посты могут только пользователи прошедшие не сложную регистрацию
    Показать сообщения:    

    Конан-варвар через торрент
    Скачать бесплатно Конан-варвар
    Конан-варвар скачать торрент
    Конан-варвар смотреть онлайн
    Cкачать фильм Конан-варвар бесплатно
    Конан-варвар скачать торрент в хорошем качестве
    Конан-варвар смотреть онлайн бесплатно в хорошем качестве


    Вы не можете начинать темы
    Вы не можете отвечать на сообщения
    Вы не можете редактировать свои сообщения
    Вы не можете удалять свои сообщения
    Вы не можете голосовать в опросах
    Вы не можете прикреплять файлы к сообщениям
    Вы можете скачивать файлы