Ссылка на приватное зеркало всего за 1$. Внимание количество ограничено!!!

OK

1+1

iTunes

мы

OK

1

WEB-DLRip

Джокер

Пифагор

Ведьмак / The Witcher сериал

iTunes

ПШазам

ОК

Оно 2

iTunes

30
pack

Вам бонус

ВАЖНО

!!Акция!!

Alien_RageХит недели

RePack

Resident Evil 21

ИГРА 18+

pack

RePack

jed

RePack

fifa19

RePack

Assassins Creed: Odyssey

RePack

NEED FOR SPEED™ PAYBACK

4 сезон

9 сезон

Бесстыжие 9 сезон

Все сериалы

все сериалы на PB.wtf

RePack

FAR CRY 5
  

Разбитая судьба (Александр Дебалюк) [2009 г., Криминальная драма, DVD5] pb.wtf

Скачать  

26-09-2014 19:35 Разбитая судьба Скачать торрент  

Разбитая судьба

Год выпуска: 2009
Страна: Россия
Жанр: драма
Продолжительность: 01:07:08
Перевод: не требуется

  • Режиссер: Александр Дебалюк
  • Продюссер: Виктория Романова
  • Сценарий: Александр Дебалюк


В ролях: Кирилл Захаров, Евгения Жукович, Руслан Чернецкий, Сергей Широчин, Андрей Олиференко, Святослав Астрамович, Сергей Зыгмантович, Светлана Кузьмина

Описание: Художественный фильм, снятый по мотивам любимых песен всенародного поэта и певца, так рано ушедшего из жизни, драматичный и непредсказуемый сюжет которого не оставит никого равнодушным.Украл выпил в тюрьму - а главный герой как раз освободился, вернулся к любимой женщине и решил завязать с криминальным прошлым, но...
+ Бонус: Документальный фильм.
С участием жены Сергея, его друзей и звезд русского шансона, их рассказы, воспоминания, эксклюзивные фото и видеоматериалы из личных архивов.

  • Качество: DVD5
  • Формат: DVD Video
  • Видео кодек: MPEG2
  • Аудио кодек: PCM
  • Видео: MPEG 2, 720x576 (4:3), 25.000 fps, 6 950 Kbps (0.442 bit/pixel)
  • Аудио: PCM, 48.0 KHz, 2 ch, 1 536 Kbps, CBR


Скриншоты меню

скриншот   скриншот  


Скриншоты

скриншот   скриншот   скриншот   скриншот  


Код:

Title: DVD Разбитая судьба
Size: 4.25 Gb ( 4 459 730,00 KBytes ) - DVD-5
Enabled regions: 1, 2, 3, 4, 5, 6, 7, 8

VTS_01 :
  Play Length: 00:34:05
  Video: PAL 4:3 (720x576) VBR
  Audio:
      English (LinearPCM, 2 ch)

VTS_02 :
  Play Length: 01:07:08
  Video: PAL 4:3 (720x576) VBR
  Audio:
      English (LinearPCM, 2 ch)

VTS_03 :
  Play Length: 00:00:04
  Video: PAL 4:3 (720x576) VBR
  Audio:
      English (Dolby AC3, 2 ch)

* Menus Information *

VIDEO_TS Menu
Video:
      PAL 4:3 (720x576) VBR
English Language Unit :
      Title Menu

VTS_01 Menu
Video:
      PAL 4:3 (720x576) VBR
English Language Unit :
      Root Menu

VTS_02 Menu
Video:
      PAL 4:3 (720x576) VBR
English Language Unit :
      Root Menu

VTS_03 Menu
Video:
      PAL 4:3 (720x576) VBR
English Language Unit :
      Root Menu


Код:

General
Complete name                            : F:\PC Share\DVD Разбитая судьба\VIDEO_TS\VTS_01_1.VOB
Format                                   : MPEG-PS
File size                                : 1 024 MiB
Duration                                 : 24mn 4s
Overall bit rate mode                    : Variable
Overall bit rate                         : 5 946 Kbps

Video
ID                                       : 224 (0xE0)
Format                                   : MPEG Video
Format version                           : Version 2
Format profile                           : Main@Main
Format settings, BVOP                    : Yes
Format settings, Matrix                  : Default
Format settings, GOP                     : M=3, N=12
Duration                                 : 24mn 4s
Bit rate mode                            : Variable
Bit rate                                 : 4 291 Kbps
Maximum bit rate                         : 7 000 Kbps
Width                                    : 720 pixels
Height                                   : 576 pixels
Display aspect ratio                     : 4:3
Frame rate                               : 25.000 fps
Standard                                 : PAL
Color space                              : YUV
Chroma subsampling                       : 4:2:0
Bit depth                                : 8 bits
Scan type                                : Interlaced
Scan order                               : Bottom Field First
Compression mode                         : Lossy
Bits/(Pixel*Frame)                       : 0.414
Time code of first frame                 : 00:00:00:00
Time code source                         : Group of pictures header
Stream size                              : 739 MiB (72%)

Audio
ID                                       : 189 (0xBD)-160 (0xA0)
Format                                   : PCM
Format settings, Endianness              : Big
Format settings, Sign                    : Signed
Muxing mode                              : DVD-Video
Duration                                 : 24mn 4s
Bit rate mode                            : Constant
Bit rate                                 : 1 536 Kbps
Channel(s)                               : 2 channels
Sampling rate                            : 48.0 KHz
Bit depth                                : 16 bits
Stream size                              : 265 MiB (26%)

Menu

pb.wtf



Скачать
Чтобы иметь возможность скачивать с Торрент Трекера, нужно Зарегистрироваться

Как скачивать  ·  Рейтинг и ограничения

28-11-2019 20:33  

Отключить всю рекламу на сайте

26-09-2014 19:36 Разбитая судьба Скачать торрент  

Советую всем посмотреть, мне фильм очень понравилсяpb.wtf



    Дорогой пользователь! Огромная просьба, поблагодарите релизера, оцените раздачу и оставьте свои комментарий, если Вы скачали Разбитая судьба через торрент бесплатно! Внесите свою лепту в развитие PiratBit!
    Комментировать посты могут только пользователи прошедшие не сложную регистрацию
    Показать сообщения:    

    Разбитая судьба через торрент
    Скачать бесплатно Разбитая судьба
    Разбитая судьба скачать торрент
    Разбитая судьба смотреть онлайн
    Cкачать фильм Разбитая судьба бесплатно
    Разбитая судьба скачать торрент в хорошем качестве
    Разбитая судьба смотреть онлайн бесплатно в хорошем качестве


    Вы не можете начинать темы
    Вы не можете отвечать на сообщения
    Вы не можете редактировать свои сообщения
    Вы не можете удалять свои сообщения
    Вы не можете голосовать в опросах
    Вы не можете прикреплять файлы к сообщениям
    Вы не можете скачивать файлы