Всегда рабочее зеркало без VPN и Proxy просто перед .vidak.icu напиши любое слово или цифру, Пример http://sa8j.vidak.icu

MVO

2 сезон

1 сезон

1

1 сезон

iTunes

2 сезон

13

1 сезон

Deluxe

pack

Рекомендуем

Пиратка

30

ВАЖНО

RePack

MK11

RePack

jed

RePack

fifa19

RePack

RDR2

RePack

NEED FOR SPEED™ PAYBACK

Кинопоиск HD

6 сезон

 Острые козырьки 6 сезон

Все сериалы

все сериалы на PB.wtf

RePack

FAR CRY 5

Anonymous, нам критически не хватает 5601 руб. на оплату серверов и переферии за Апрель, помоги нам пожалуйста, вся надежда только на тебя. В благодарность мы отключим тебе всю рекламу на сайте!

×
  
Magnet ссылка

Зачётный препод / Fack ju Göhte (Бора Дагтекин) [2013 г., комедия, BDRip 720p, Авторский] pb.wtf

Зачётный препод через торрент pb.wtf

Размер: 10.06 GB | Добавлен: 7 лет 6 мес. назад | Торрент скачан:53 раза
Смотреть онлайн Зачётный препод | Скачать    Ребята, помогите собрать деньги на оплату серверов!!!

26-10-2014 21:16 Зачётный препод Скачать торрент  

Зачётный препод / Fack ju Göhte
Год выпуска: 2013
Страна: Германия
Жанр: комедия
Продолжительность: 01:57:08
Перевод: Авторский
Субтитры: Russian, English, German

Режиссер: Бора Дагтекин
Продюссер: Кристиан Бекер, Лена Олбрич, Бора Дагтекин
Сценарий: Бора Дагтекин
Премьера в мире: 7 ноября 2013

IMDB 7.20 (9214)


В ролях: Элиас ЭмБарек, Каролина Херфурт, Катя Риман, Яна Палласке, Алвара Хёфельс, Йелла Хаазе, Макс фон Гробен, Анна-Лена Кленке, Гизем Эмре, Aram Arami

Описание: Незадачливый грабитель банков Зеки Мюллер после тринадцати месяцев отсидки выходит из тюрьмы. Он отправляется на поиски награбленной добычи, которая была спрятана на стройке. Вместе с подружкой они думали, что там идёт всего-навсего прокладка труб. Каково же удивление горе-грабителя, когда он обнаруживает на нужном месте новенький школьный спортзал!Чтобы добраться до награбленного, Зеки пытается устроиться на место школьного сторожа. Но в результате лёгкого недопонимания вместо этого его берут в качестве учителя на замену. Ему достаётся самый буйный и ненормальный класс во всей школе — 10 «Б». Используя несколько необычные методы, бывший грабитель неожиданно находит общий язык с учениками. Одновременно с этим по ночам он пытается добраться до спрятанной добычи и влюбляется в коллегу-учительницу Лиси.

Доп. информация: Сохранены оригинальные чаптеры как на Blu-ray.
Внимание!!! В переводе содержится ненормативная лексика.


Качество: BDRip 720p
Формат: MKV
Видео кодек: AVC
Аудио кодек: AC3
Видео: 1280x544 at 24.000 fps (True24p), x264@L4.1, crf, ~8077 kbps avg
Аудио#1: Russian: 48 kHz, AC3, 3/2 (L,C,R,l,r) + LFE ch, ~384.00 kbps avg |Одноголосый закадровый, В. Данилов|
Аудио#2: Russian: 48 kHz, DTS, 3/2 (L,C,R,l,r) + LFE ch, ~1536.00 kbps avg |Одноголосый закадровый, М. Яроцкий|
Аудио#3: German: 48 kHz, DTS, 3/2 (L,C,R,l,r) + LFE ch, ~1536.00 kbps avg
Аудио#4: German: 48 kHz, AC3, 2/0 (L,R) ch, ~192.00 kbps avg |Commentary #1|
Аудио#5: German: 48 kHz, AC3, 2/0 (L,R) ch, ~192.00 kbps avg |Commentary #2|
Аудио#6: German: 48 kHz, AC3, 2/0 (L,R) ch, ~192.00 kbps avg |Commentary #3|
General
Unique ID : 212681482382349669488988350932492663972 (0xA000F6AB7445F69A914E4D3AD066BCA4)
Complete name : /home/sb1855/files/Fack.ju.Goehte.2013.720p.BluRay.2xRus.Ger.HDClub.mkv
Format : Matroska
Format version : Version 2
File size : 10.1 GiB
Duration : 1h 57mn
Overall bit rate : 12.3 Mbps
Movie name : Fack ju Goehte (2013) - Release for HDCLUB by LexxBlack
Encoded date : UTC 2014-10-26 11:00:43
Writing application : mkvmerge v7.3.0 ('Nouages') 32bit built on Oct 22 2014 18:44:01
Writing library : libebml v1.3.0 + libmatroska v1.4.1

Video
ID : 1
Format : AVC
Format/Info : Advanced Video Codec
Format profile : High@L4.1
Format settings, CABAC : Yes
Format settings, ReFrames : 12 frames
Codec ID : V_MPEG4/ISO/AVC
Duration : 1h 57mn
Bit rate : 8 076 Kbps
Width : 1 280 pixels
Height : 544 pixels
Display aspect ratio : 2.35:1
Frame rate : 24.000 fps
Color space : YUV
Chroma subsampling : 4:2:0
Bit depth : 8 bits
Scan type : Progressive
Bits/(Pixel*Frame) : 0.483
Stream size : 6.61 GiB (66%)
Title : Release for HDClub
Writing library : x264 core 142 r2479 dd79a61
Encoding settings : cabac=1 / ref=12 / deblock=1:-3:-3 / analyse=0x3:0x113 / me=umh / subme=10 / psy=1 / psy_rd=1.05:0.00 / mixed_ref=1 / me_range=48 / chroma_me=1 / trellis=2 / 8x8dct=1 / cqm=0 / deadzone=21,11 / fast_pskip=0 / chroma_qp_offset=-3 / threads=12 / lookahead_threads=3 / sliced_threads=0 / nr=0 / decimate=1 / interlaced=0 / bluray_compat=0 / constrained_intra=0 / bframes=10 / b_pyramid=2 / b_adapt=2 / b_bias=0 / direct=1 / weightb=1 / open_gop=0 / weightp=2 / keyint=250 / keyint_min=23 / scenecut=40 / intra_refresh=0 / rc_lookahead=60 / rc=crf / mbtree=1 / crf=16.1 / qcomp=0.75 / qpmin=0 / qpmax=69 / qpstep=4 / vbv_maxrate=50000 / vbv_bufsize=62500 / crf_max=0.0 / nal_hrd=none / filler=0 / ip_ratio=1.40 / aq=1:1.00
Language : German
Default : Yes
Forced : No

Audio #1
ID : 2
Format : AC-3
Format/Info : Audio Coding 3
Mode extension : CM (complete main)
Format settings, Endianness : Big
Codec ID : A_AC3
Duration : 1h 57mn
Bit rate mode : Constant
Bit rate : 384 Kbps
Channel(s) : 6 channels
Channel positions : Front: L C R, Side: L R, LFE
Sampling rate : 48.0 KHz
Bit depth : 16 bits
Compression mode : Lossy
Stream size : 322 MiB (3%)
Title : Danilov (VirusProject)
Language : Russian
Default : Yes
Forced : No

Audio #2
ID : 3
Format : DTS
Format/Info : Digital Theater Systems
Codec ID : A_DTS
Duration : 1h 57mn
Bit rate mode : Constant
Bit rate : 1 510 Kbps
Channel(s) : 6 channels
Channel positions : Front: L C R, Side: L R, LFE
Sampling rate : 48.0 KHz
Bit depth : 24 bits
Compression mode : Lossy
Stream size : 1.24 GiB (12%)
Title : Yarotski
Language : Russian
Default : No
Forced : No

Audio #3
ID : 4
Format : DTS
Format/Info : Digital Theater Systems
Codec ID : A_DTS
Duration : 1h 57mn
Bit rate mode : Constant
Bit rate : 1 510 Kbps
Channel(s) : 6 channels
Channel positions : Front: L C R, Side: L R, LFE
Sampling rate : 48.0 KHz
Bit depth : 24 bits
Compression mode : Lossy
Stream size : 1.24 GiB (12%)
Title : Original
Language : German
Default : No
Forced : No

Audio #4
ID : 5
Format : AC-3
Format/Info : Audio Coding 3
Mode extension : CM (complete main)
Format settings, Endianness : Big
Codec ID : A_AC3
Duration : 1h 57mn
Bit rate mode : Constant
Bit rate : 192 Kbps
Channel(s) : 2 channels
Channel positions : Front: L R
Sampling rate : 48.0 KHz
Bit depth : 16 bits
Compression mode : Lossy
Stream size : 161 MiB (2%)
Title : Commentary #1
Language : German
Default : No
Forced : No

Audio #5
ID : 6
Format : AC-3
Format/Info : Audio Coding 3
Mode extension : CM (complete main)
Format settings, Endianness : Big
Codec ID : A_AC3
Duration : 1h 57mn
Bit rate mode : Constant
Bit rate : 192 Kbps
Channel(s) : 2 channels
Channel positions : Front: L R
Sampling rate : 48.0 KHz
Bit depth : 16 bits
Compression mode : Lossy
Stream size : 161 MiB (2%)
Title : Commentary #2
Language : German
Default : No
Forced : No

Audio #6
ID : 7
Format : AC-3
Format/Info : Audio Coding 3
Mode extension : CM (complete main)
Format settings, Endianness : Big
Codec ID : A_AC3
Duration : 1h 57mn
Bit rate mode : Constant
Bit rate : 192 Kbps
Channel(s) : 2 channels
Channel positions : Front: L R
Sampling rate : 48.0 KHz
Bit depth : 16 bits
Compression mode : Lossy
Stream size : 161 MiB (2%)
Title : Commentary #3
Language : German
Default : No
Forced : No

Text #1
ID : 8
Format : UTF-8
Codec ID : S_TEXT/UTF8
Codec ID/Info : UTF-8 Plain Text
Title : Full
Language : Russian
Default : No
Forced : No

Text #2
ID : 9
Format : UTF-8
Codec ID : S_TEXT/UTF8
Codec ID/Info : UTF-8 Plain Text
Title : Full
Language : English
Default : No
Forced : No

Text #3
ID : 10
Format : UTF-8
Codec ID : S_TEXT/UTF8
Codec ID/Info : UTF-8 Plain Text
Title : Full
Language : German
Default : No
Forced : No

Menu
00:00:00.000 : de:00:00:00.000
00:05:23.125 : de:00:05:23.125
00:11:24.625 : de:00:11:24.625
00:17:38.163 : de:00:17:38.163
00:21:14.913 : de:00:21:14.913
00:26:57.788 : de:00:26:57.788
00:33:51.163 : de:00:33:51.163
00:39:11.666 : de:00:39:11.666
00:43:54.708 : de:00:43:54.708
00:49:57.083 : de:00:49:57.083
00:55:18.875 : de:00:55:18.875
01:02:29.166 : de:01:02:29.166
01:08:21.875 : de:01:08:21.875
01:13:31.041 : de:01:13:31.041
01:17:51.291 : de:01:17:51.291
01:23:37.166 : de:01:23:37.166
01:29:43.000 : de:01:29:43.000
01:34:39.875 : de:01:34:39.875
01:40:45.416 : de:01:40:45.416
01:45:19.750 : de:01:45:19.750
01:48:24.832 : de:01:48:24.832
01:57:07.916 : de:01:57:07.916

pb.wtf



Скачать Зачётный препод через торрент http://i66.fastpic.ru/big/2014/1027/36/965a8040036e6a154d880d018acedb36.png Скачать, смотреть онлайн Зачётный препод бесплантно в хорошем качестве Описание: Незадачливый грабитель банков Зеки Мюллер после тринадцати месяцев отсидки выходит из тюрьмы. Он отправляется на поиски ... 10 10 2
Торрент: Зарегистрирован [2014-10-26 21:16] · скачан: 53 раз
Статус: √ проверено
Размер: 10.06 GB
Как cкачать? Как скачать Зачётный препод через торрент | UTorrent

% Раздел Тема Автор DL S | L
Фильмы [HD 720p, 1080p] (Хороший звук DUB, MVO) [ 13.23 GB ] Зачётный препод 3 / Fack ju Göhte 3 [2017 BDRip 1080p] bober100 Скачать
1 | 0
Фильмы 2017 [DVDrip, WEB-DLRip, HDrip] (DUB, MVO) [ 2.13 GB ] Зачётный препод 3 / Fack ju Göhte 3 [2017 BDRip] bober100 Скачать
1 | 0
Фильмы [HD 720p, 1080p] (Хороший звук DUB, MVO) [ 5.65 GB ] Зачётный препод 3 / Fack ju Göhte 3 [2017 BDRip 1080p HEVC ] Мичман37 Скачать
1 | 0
Фильмы [HD 720p, 1080p] (Хороший звук DUB, MVO) [ 5.79 GB ] Зачётный препод 2 / Fack ju Göhte 2 [2015 BDRip 1080p HEVC ()] Мичман37 Скачать
1 | 0
Фильмы [HD 720p, 1080p] (Хороший звук DUB, MVO) [ 8.11 GB ] Зачётный препод / Fack ju Göhte [2013 BDRip 1080p HEVC | ] Мичман37 Скачать
1 | 0
Фильмы 2017 [DVDrip, WEB-DLRip, HDrip] (DUB, MVO) [ 2.57 GB ] Зачётный препод 3 / Fack ju Göhte 3 [2017 BDRip-AVC] bober100 Скачать
1 | 0
Фильмы 2017 [DVDrip, WEB-DLRip, HDrip] (DUB, MVO) [ 1.41 GB ] Зачётный препод 3 / Fack ju Göhte 3 [2017 BDRip] bober100 Скачать
1 | 0

28-11-2019 20:33  

Отключить всю рекламу на сайте

26-10-2014 21:53 Зачётный препод Скачать торрент  

а-ля Бриллиантовый полицейский
представляю, что за дерьмо наснималиpb.wtf



    Дорогой пользователь! Огромная просьба, поблагодарите релизера, оцените раздачу и оставьте свои комментарий, если Вы скачали Зачётный препод через торрент бесплатно!
    Комментировать посты могут только пользователи прошедшие не сложную регистрацию
    Показать сообщения:    

    Зачётный препод через торрент
    Скачать бесплатно Зачётный препод
    Зачётный препод скачать торрент
    Зачётный препод смотреть онлайн
    Cкачать фильм Зачётный препод бесплатно
    Зачётный препод скачать торрент в хорошем качестве
    Зачётный препод смотреть онлайн бесплатно в хорошем качестве


    Вы не можете начинать темы
    Вы не можете отвечать на сообщения
    Вы не можете редактировать свои сообщения
    Вы не можете удалять свои сообщения
    Вы не можете голосовать в опросах
    Вы не можете прикреплять файлы к сообщениям
    Вы можете скачивать файлы